<?xml version="1.0" standalone="no"?>
<!DOCTYPE svg PUBLIC "-//W3C//DTD SVG 1.1//EN" "http://www.w3.org/Graphics/SVG/1.1/DTD/svg11.dtd" >
<svg xmlns="http://www.w3.org/2000/svg" xmlns:xlink="http://www.w3.org/1999/xlink" version="1.1">
<metadata>
Created by FontForge 20170731 at Thu Jul 27 12:32:00 2017
 By Aleksey,,,
Copyright c 2017 Hankook Tire Co.,Ltd. all rights reserved. Font designed by Sandoll Communications Inc.
</metadata>
<defs>
<font id="HankookTTFLightOblique" horiz-adv-x="715" >
  <font-face 
    font-family="Hankook TTF Light Oblique"
    font-weight="300"
    font-style="oblique"
    font-stretch="normal"
    units-per-em="1000"
    panose-1="2 11 6 0 0 1 1 1 1 1"
    ascent="800"
    descent="-200"
    x-height="546"
    cap-height="750"
    bbox="-194 -284 1457.63 1140"
    underline-thickness="50"
    underline-position="-150"
    unicode-range="U+000D-206F"
  />
<missing-glyph horiz-adv-x="280" 
 />
    <glyph glyph-name=".notdef" horiz-adv-x="280" 
 />
    <glyph glyph-name=".null" horiz-adv-x="0" 
 />
    <glyph glyph-name="nonmarkingreturn" unicode="&#xd;" horiz-adv-x="280" 
 />
    <glyph glyph-name="NULL" horiz-adv-x="0" 
 />
    <glyph glyph-name="NULL" horiz-adv-x="0" 
 />
    <glyph glyph-name="space" unicode=" " horiz-adv-x="260" 
 />
    <glyph glyph-name="exclam" unicode="!" horiz-adv-x="259" 
d="M113 185h-36l93 565h56zM44 77h63l-14 -77h-63z" />
    <glyph glyph-name="quotedbl" unicode="&#x22;" horiz-adv-x="358" 
d="M149 503h-37l36 247h54zM299 503h-39l37 247h54z" />
    <glyph glyph-name="numbersign" unicode="#" horiz-adv-x="682" 
d="M109 537h158l84 213h43l-84 -213h188l84 213h43l-84 -213h153l-8 -41h-161l-88 -224h152l-8 -41h-160l-91 -231h-43l91 231h-188l-91 -231h-43l91 231h-151l8 41h159l88 224h-150zM206 272h188l88 224h-188z" />
    <glyph glyph-name="dollar" unicode="$" horiz-adv-x="599" 
d="M551 674q-38 11 -81.5 15t-83.5 5l-56 -298l24 -7q47 -14 80 -29.5t52 -36t24 -48.5t-2 -67q-8 -44 -24 -79t-44.5 -59.5t-72.5 -38.5t-108 -17l-16 -85h-36l16 85q-24 0 -52 1.5t-57 4.5t-58 8.5t-55 13.5l9 45q67 -20 120 -25.5t101 -5.5l56 305l-50 15q-80 23 -113 66
t-19 120q9 48 28.5 80.5t51 52.5t74.5 29t98 11l14 75h37l-14 -74q96 -2 164 -23zM146 555q-5 -30 -1 -51.5t17.5 -37.5t36.5 -27.5t56 -20.5l41 -12l53 287q-39 -1 -72.5 -7.5t-60 -22t-44.5 -42t-26 -66.5zM322 351l-55 -294q39 2 71.5 11t57.5 26.5t42.5 46t25.5 69.5
q6 33 1.5 54t-20.5 35.5t-42.5 25t-63.5 21.5z" />
    <glyph glyph-name="percent" unicode="%" horiz-adv-x="808" 
d="M686 736h50l-614 -736h-50zM382 508q-14 -72 -61 -107.5t-117 -35.5q-68 0 -104.5 40t-23.5 113l14 74q13 73 60 109t116 36q34 0 61.5 -10.5t45.5 -30t24.5 -47.5t-0.5 -64zM354 581q11 56 -12 86t-78 30q-62 0 -92.5 -30.5t-41.5 -85.5l-12 -62q-10 -55 14.5 -84.5
t76.5 -29.5q110 0 133 114zM711 132q-14 -72 -61 -107.5t-117 -35.5q-68 0 -104.5 40t-23.5 113l14 74q13 73 60 109t116 36q34 0 61.5 -10.5t45.5 -30t24.5 -47.5t-0.5 -64zM683 205q11 56 -12 86t-78 30q-62 0 -92.5 -30.5t-41.5 -85.5l-12 -62q-10 -55 14.5 -84.5
t76.5 -29.5q110 0 133 114z" />
    <glyph glyph-name="ampersand" unicode="&#x26;" horiz-adv-x="669" 
d="M156 545q-11 -59 15.5 -96.5t94.5 -37.5h369l-7 -43h-88l-64 -343q-22 -9 -49.5 -15.5t-56.5 -11t-57.5 -6.5t-52.5 -2q-70 0 -117 15.5t-73.5 44.5t-34 70.5t2.5 94.5q5 27 16 53.5t29 50t42.5 42t56.5 28.5q-27 11 -43.5 28.5t-24 39t-8 45t4.5 46.5q20 102 89.5 150
t184.5 48q51 0 92 -7t73 -18l-7 -38q-42 11 -75 15.5t-74 4.5q-106 0 -163.5 -37t-74.5 -121zM261 368q-30 0 -58.5 -10t-53 -30t-42.5 -50.5t-26 -71.5q-9 -49 -0.5 -82t33 -53.5t64 -29t92.5 -8.5q104 0 167 23l59 312h-235z" />
    <glyph glyph-name="quotesingle" unicode="'" horiz-adv-x="209" 
d="M149 503h-37l36 247h54z" />
    <glyph glyph-name="parenleft" unicode="(" horiz-adv-x="292" 
d="M81 414q11 56 32 115t49.5 114t65 103.5t79.5 84.5h52q-51 -44 -90.5 -97.5t-68.5 -110.5t-48 -113.5t-28 -106.5l-24 -131q-9 -51 -12 -109t4 -116t26 -113t53 -98h-48q-29 36 -47 89.5t-26 115.5t-6 126t13 121z" />
    <glyph glyph-name="parenright" unicode=")" horiz-adv-x="292" 
d="M199 253q-11 -56 -31.5 -115t-49.5 -114t-65.5 -103.5t-79.5 -84.5h-52q51 44 90.5 97.5t68.5 110.5t48 113.5t28 106.5l24 131q10 51 13 109t-4 116t-26 112.5t-53 98.5h47q30 -36 48 -89.5t25.5 -115.5t5.5 -126t-13 -121z" />
    <glyph glyph-name="asterisk" unicode="*" horiz-adv-x="447" 
d="M81 433l-14 39l165 79l-135 78l27 39l122 -87l29 168h43l-37 -168l156 87l14 -39l-164 -78l134 -79l-27 -39l-124 87l-27 -167h-43l35 167z" />
    <glyph glyph-name="plus" unicode="+" horiz-adv-x="594" 
d="M363 596l-42 -222h214l-8 -46h-214l-45 -240h-46l45 240h-214l9 46h213l42 222h46z" />
    <glyph glyph-name="comma" unicode="," horiz-adv-x="247" 
d="M40 77h66l-94 -214h-46z" />
    <glyph glyph-name="hyphen" unicode="-" horiz-adv-x="301" 
d="M28 317h227l-9 -47h-227z" />
    <glyph glyph-name="period" unicode="." horiz-adv-x="247" 
d="M38 77h63l-14 -77h-63z" />
    <glyph glyph-name="slash" unicode="/" horiz-adv-x="466" 
d="M476 831h53l-551 -995h-52z" />
    <glyph glyph-name="zero" unicode="0" horiz-adv-x="610" 
d="M545 317q-32 -161 -106.5 -244t-204.5 -83q-128 0 -175.5 83t-15.5 244l21 110q32 161 107 244.5t203 83.5q130 0 176.5 -84t15.5 -244zM522 431q15 75 12 128.5t-22.5 87t-55 49t-86.5 15.5q-49 0 -90 -15.5t-73.5 -49t-56 -87t-38.5 -128.5l-23 -117
q-15 -76 -12 -129.5t22.5 -87t54.5 -49t84 -15.5q51 0 92.5 15.5t74 49t56 87t38.5 129.5z" />
    <glyph glyph-name="one" unicode="1" horiz-adv-x="610" 
d="M53 45h192l124 637l-219 -116l9 52l236 127h33l-136 -700h177l-8 -45h-416z" />
    <glyph glyph-name="two" unicode="2" horiz-adv-x="610" 
d="M3 41l397 354q30 27 49.5 47.5t32.5 37.5t20 33t10 34l5 25q6 31 1.5 56.5t-23 43.5t-53.5 28t-89 10q-51 0 -103.5 -10.5t-101.5 -31.5l9 47q41 17 92 28.5t105 11.5q116 0 171 -46.5t38 -134.5l-6 -29q-3 -17 -8 -34t-18 -38t-36.5 -47t-62.5 -61l-359 -319h414l-8 -46
h-483z" />
    <glyph glyph-name="three" unicode="3" horiz-adv-x="610" 
d="M201 406h88q48 0 86.5 12t66 36t42.5 60.5t15 86.5q0 24 -5.5 44t-22.5 34.5t-48 22.5t-81 8q-47 0 -98 -9.5t-96 -26.5l9 45q19 7 42.5 13.5t48.5 11.5t51 8t51 3q55 0 93 -10.5t61 -30.5t33 -48t10 -63q0 -36 -9 -71.5t-30 -65.5t-55 -52t-84 -32q129 -20 129 -130
q0 -126 -72.5 -194t-220.5 -68q-64 0 -117.5 11.5t-86.5 25.5l9 44q40 -16 93 -27t106 -11q112 0 177 52t65 164q0 33 -13.5 54.5t-37 34.5t-55 18t-67.5 5h-86z" />
    <glyph glyph-name="four" unicode="4" horiz-adv-x="610" 
d="M12 225l459 520h61l-101 -522h124l-9 -43h-124l-34 -180h-45l34 180h-374zM475 686l-407 -463h318z" />
    <glyph glyph-name="five" unicode="5" horiz-adv-x="610" 
d="M198 745h379l-8 -44h-334l-64 -278q39 9 74 13t69 4q65 0 108.5 -14t68 -39t31 -60t-1.5 -78l-11 -57q-20 -102 -93.5 -152t-195.5 -50q-69 0 -122 11.5t-86 25.5l9 45q40 -16 89 -27t114 -11q57 0 98.5 12.5t70 35t45.5 53.5t25 67l9 43q7 35 3 63.5t-23.5 48t-57 30
t-96.5 10.5q-42 0 -92 -7.5t-93 -18.5z" />
    <glyph glyph-name="six" unicode="6" horiz-adv-x="610" 
d="M76 441q19 96 53.5 157.5t79.5 96t98 47.5t107 13t97 -8.5t71 -19.5l-8 -44q-37 15 -80.5 21.5t-82.5 6.5q-50 0 -95.5 -12.5t-84 -45t-68 -87.5t-45.5 -139l-11 -56q19 15 45 30.5t57.5 28t67.5 20.5t75 8q48 0 87 -12.5t64.5 -38t35.5 -63.5t0 -90l-8 -41
q-9 -47 -29.5 -87.5t-54.5 -70.5t-83 -47.5t-116 -17.5q-72 0 -117 24.5t-67 68.5t-23.5 106.5t13.5 138.5zM336 415q-30 0 -62 -7.5t-63.5 -20t-60.5 -30t-52 -36.5q-15 -78 -12.5 -132t22 -88.5t55.5 -50t87 -15.5q56 0 97 13.5t69.5 38.5t45.5 59t25 76l6 34
q17 84 -24 121.5t-133 37.5z" />
    <glyph glyph-name="seven" unicode="7" horiz-adv-x="610" 
d="M153 0h-57l466 700h-435l9 45h492l-7 -38z" />
    <glyph glyph-name="eight" unicode="8" horiz-adv-x="610" 
d="M26 145q0 48 15.5 85t43.5 65.5t66.5 48t85.5 33.5q-62 19 -92 54t-30 83q0 59 19.5 104t54.5 75.5t83.5 46t106.5 15.5q102 0 155 -37t53 -112q0 -48 -13.5 -84.5t-38.5 -64.5t-60 -49t-77 -37q74 -24 104.5 -60.5t30.5 -81.5q0 -53 -18 -96.5t-54 -75.5t-89.5 -49.5
t-123.5 -17.5q-116 0 -169 42.5t-53 112.5zM292 357l-41 -13q-36 -11 -68 -26.5t-56 -38t-38 -54t-14 -74.5q0 -33 15 -56t39.5 -36.5t56.5 -19.5t66 -6q43 0 84.5 10t74.5 32.5t53 59t20 90.5q0 20 -7 38t-24.5 33.5t-46.5 28t-73 22.5zM379 712q-45 0 -85 -11.5t-69 -35
t-46 -59t-17 -83.5q0 -51 32 -77.5t88 -40.5l62 -15l56 25q30 13 56 28t44.5 35.5t29 50t10.5 71.5q0 61 -41.5 86.5t-119.5 25.5z" />
    <glyph glyph-name="nine" unicode="9" horiz-adv-x="610" 
d="M541 304q-19 -96 -53.5 -157.5t-79.5 -96t-98 -47.5t-107 -13t-97 8.5t-71 19.5l8 44q37 -15 80.5 -21.5t82.5 -6.5q49 0 95 12.5t84.5 45t67.5 87.5t46 139l10 56q-18 -14 -44 -29.5t-57.5 -28.5t-67.5 -21t-75 -8q-48 0 -87 12.5t-64.5 38t-35.5 63.5t0 90l8 41
q9 47 29 87.5t54 70.5t82.5 47.5t115.5 17.5q72 0 117 -24.5t67.5 -68.5t24.5 -106.5t-13 -138.5zM281 330q30 0 62 7.5t63 20t60 29.5t53 36q15 78 12 132.5t-22.5 89t-55 50t-86.5 15.5q-57 0 -98.5 -13.5t-69.5 -38.5t-44.5 -59t-24.5 -76l-6 -34q-17 -84 24 -121.5
t133 -37.5z" />
    <glyph glyph-name="colon" unicode=":" horiz-adv-x="248" 
d="M108 455h63l-15 -77h-63zM38 77h63l-14 -77h-63z" />
    <glyph glyph-name="semicolon" unicode=";" horiz-adv-x="248" 
d="M36 77h66l-96 -214h-46zM108 455h63l-15 -77h-63z" />
    <glyph glyph-name="less" unicode="&#x3c;" horiz-adv-x="612" 
d="M138 361l360 -211l-9 -48l-414 248l6 34l504 246l-10 -53l-436 -212z" />
    <glyph glyph-name="equal" unicode="=" horiz-adv-x="600" 
d="M86 492h474l-9 -46h-473zM43 257h473l-9 -46h-473z" />
    <glyph glyph-name="greater" unicode="&#x3e;" horiz-adv-x="612" 
d="M476 373l-361 210l9 47l414 -247l-6 -34l-504 -247l11 54l436 213z" />
    <glyph glyph-name="question" unicode="?" horiz-adv-x="486" 
d="M175 254q5 27 13 47.5t23 39.5t39.5 38t62.5 42q25 15 45.5 30t36.5 32.5t26.5 38.5t15.5 48q6 31 4.5 57t-17 45t-47.5 29.5t-88 10.5q-46 0 -93 -11t-90 -28l7 44q38 16 83 28t95 12q61 0 101.5 -13t63.5 -37.5t29 -59.5t-2 -80q-8 -38 -22.5 -65.5t-34.5 -48.5
t-44.5 -38t-52.5 -34q-32 -20 -51.5 -35t-31 -29t-17 -29.5t-9.5 -35.5l-13 -69h-46zM134 77h63l-14 -77h-63z" />
    <glyph glyph-name="at" unicode="@" horiz-adv-x="1016" 
d="M740 -134q-67 -20 -140.5 -31.5t-167.5 -11.5q-108 0 -187 25t-128 74t-65 122t2 169l28 152q18 96 61.5 166t106.5 115.5t143.5 68t174.5 22.5q100 0 176.5 -24t124 -71.5t64 -119t-1.5 -167.5l-16 -89q-20 -104 -69 -161t-127 -57q-42 0 -70.5 21.5t-32.5 59.5
q-14 -13 -35 -27t-47.5 -26t-58 -20t-67.5 -8q-41 0 -66.5 13.5t-38 37.5t-14.5 57t6 72l21 115q10 52 28 85.5t42.5 52.5t54 26t61.5 7q52 0 94.5 -15.5t66.5 -34.5l7 39l47 10l-61 -319q-21 -106 63 -106q25 0 48 8.5t43.5 29t36 55t25.5 87.5l18 96q31 165 -54 249
t-270 84q-87 0 -161 -22t-131 -63.5t-95 -102.5t-53 -139l-31 -166q-31 -162 53 -251t288 -89q91 0 166 10t146 32zM656 427q-18 15 -58.5 30.5t-96.5 15.5q-62 0 -95.5 -31.5t-46.5 -105.5l-20 -108q-6 -32 -6.5 -58t8 -44t27.5 -28t51 -10q51 0 100 22t86 52z" />
    <glyph glyph-name="A" unicode="A" horiz-adv-x="644" 
d="M564 0h-48l-47 231h-350l-129 -231h-50l423 750h45zM461 275l-53 270l-27 157q-14 -25 -24.5 -44.5t-20 -37.5t-20 -36.5t-22.5 -40.5l-149 -268h316z" />
    <glyph glyph-name="B" unicode="B" horiz-adv-x="624" 
d="M156 750h214q52 0 94.5 -6.5t70 -24t38.5 -49.5t1 -83l-10 -54q-5 -25 -14.5 -48.5t-27 -42.5t-44.5 -33t-68 -20q78 -8 109 -47t19 -97l-12 -70q-10 -54 -29.5 -88t-53 -53.5t-83 -26.5t-118.5 -7h-227zM132 369l-62 -325h179q55 0 95 5.5t67.5 20.5t43.5 42t24 71
l11 59q5 30 0.5 53.5t-24 40t-56.5 25t-96 8.5h-182zM195 706l-56 -296h182q78 0 130 27t65 93l12 61q6 33 1.5 55.5t-24 35.5t-55 18.5t-89.5 5.5h-166z" />
    <glyph glyph-name="C" unicode="C" horiz-adv-x="598" 
d="M596 695q-33 11 -74 16.5t-98 5.5q-134 0 -208 -65t-98 -204l-25 -142q-11 -60 -9 -110t23.5 -86.5t68 -56.5t125.5 -20q42 0 90 6t97 23l-8 -43q-24 -9 -51.5 -14.5t-54 -9t-49 -4.5t-37.5 -1q-85 0 -138.5 23.5t-80.5 66.5t-30.5 104.5t10.5 138.5l25 134
q16 86 46.5 144t75.5 93.5t103.5 50.5t131.5 15q53 0 97 -6t76 -19z" />
    <glyph glyph-name="D" unicode="D" horiz-adv-x="681" 
d="M15 0l141 750h222q76 0 132.5 -14t89.5 -49.5t42.5 -96.5t-8.5 -155l-26 -137q-15 -81 -39 -138t-64.5 -92.5t-103 -51.5t-153.5 -16h-233zM194 705l-124 -660h181q81 0 135.5 15t89 46t53.5 78.5t31 111.5l29 154q14 73 9 122t-30.5 78.5t-71.5 42t-114 12.5h-188z" />
    <glyph glyph-name="E" unicode="E" horiz-adv-x="573" 
d="M588 750l-9 -45h-385l-55 -292h353l-8 -43h-353l-61 -325h402l-7 -45h-450l141 750h432z" />
    <glyph glyph-name="F" unicode="F" horiz-adv-x="554" 
d="M579 750l-9 -45h-375l-60 -315h350l-9 -44h-349l-65 -346h-47l141 750h423z" />
    <glyph glyph-name="G" unicode="G" horiz-adv-x="641" 
d="M603 696q-33 11 -75 16t-99 5q-78 0 -132 -19.5t-90 -55.5t-56.5 -86t-31.5 -110l-26 -139q-10 -53 -9 -102t22.5 -87.5t69.5 -61.5t132 -23q51 0 96 6t80 17l54 294h-195l9 43h242l-71 -370q-48 -18 -107.5 -25.5t-113.5 -7.5q-88 0 -143.5 24t-84.5 67t-34.5 102.5
t7.5 131.5l25 131q15 81 42 140.5t70.5 98t105 57t144.5 18.5q57 0 101.5 -6.5t75.5 -17.5z" />
    <glyph glyph-name="H" unicode="H" horiz-adv-x="686" 
d="M531 0h-46l70 373h-423l-70 -373h-47l141 750h47l-63 -333h423l63 333h45z" />
    <glyph glyph-name="I" unicode="I" horiz-adv-x="218" 
d="M62 0h-47l141 750h47z" />
    <glyph glyph-name="J" unicode="J" horiz-adv-x="386" 
d="M373 750l-111 -590q-9 -50 -25 -82.5t-39 -52t-55 -27.5t-74 -8q-32 0 -65.5 5t-51.5 10l9 45q29 -8 54 -11.5t57 -3.5q35 0 59.5 7.5t41.5 24t27.5 42.5t17.5 62l109 579h46z" />
    <glyph glyph-name="K" unicode="K" horiz-adv-x="611" 
d="M302 376l222 -376h-54l-210 357h-131l-67 -357h-47l141 750h47l-66 -349h129l310 349h60z" />
    <glyph glyph-name="L" unicode="L" horiz-adv-x="545" 
d="M203 750l-133 -705h385l-8 -45h-432l141 750h47z" />
    <glyph glyph-name="M" unicode="M" horiz-adv-x="813" 
d="M658 0h-47l92 488q4 20 9 46t11 53.5t11.5 54.5t10.5 49q-27 -58 -53 -104t-54 -96l-274 -491h-44l-97 492q-5 25 -10 47t-9 45t-8 49.5t-8 61.5q-5 -30 -8.5 -54t-7.5 -47t-8.5 -47.5t-10.5 -56.5l-92 -490h-46l141 750h62l95 -503q5 -27 9.5 -49.5t9 -44.5t9 -46.5
t9.5 -54.5q16 30 28.5 54t23.5 45.5t23 43.5t27 49l285 506h61z" />
    <glyph glyph-name="N" unicode="N" horiz-adv-x="689" 
d="M533 0h-50l-228 529q-17 39 -32 76.5t-32 82.5l-129 -688h-47l141 750h51l228 -529q10 -23 18 -42t15 -37t14 -37t15 -42l131 687h46z" />
    <glyph glyph-name="O" unicode="O" 
d="M648 313q-31 -162 -121.5 -243.5t-238.5 -81.5q-146 0 -209 87.5t-33 249.5l22 114q31 161 123 242t238 81t208.5 -86t31.5 -249zM623 426q28 147 -22.5 219.5t-177.5 72.5q-125 0 -204 -72.5t-107 -219.5l-19 -102q-28 -148 23.5 -220t176.5 -72q122 0 202 72t108 220z
" />
    <glyph glyph-name="P" unicode="P" horiz-adv-x="618" 
d="M156 750h259q50 0 91 -7.5t67 -29.5t35.5 -62t-2.5 -104l-10 -53q-11 -60 -33 -95.5t-56.5 -54.5t-81.5 -24.5t-109 -5.5h-195l-59 -314h-47zM195 706l-66 -348h187q56 0 96.5 5t68.5 20t44.5 42t24.5 71l13 72q7 39 1.5 65.5t-24.5 42.5t-51.5 23t-79.5 7h-214z" />
    <glyph glyph-name="Q" unicode="Q" horiz-adv-x="716" 
d="M648 313q-37 -196 -165 -275l71 -141h-47l-61 121q-69 -30 -158 -30q-146 0 -209 87.5t-33 249.5l22 114q31 161 123 242t238 81t208.5 -86t31.5 -249zM401 205l62 -126q52 35 87.5 96t52.5 149l20 102q28 147 -22.5 219.5t-177.5 72.5q-125 0 -204 -72.5t-107 -219.5
l-19 -102q-28 -148 23.5 -220t176.5 -72q74 0 133 27l-72 146h47z" />
    <glyph glyph-name="R" unicode="R" horiz-adv-x="632" 
d="M156 750h260q50 0 90.5 -7.5t67 -29t36 -60.5t-2.5 -102l-10 -51q-9 -46 -24.5 -76.5t-38.5 -50t-53.5 -29.5t-69.5 -15l118 -329h-49l-113 324h-244l-61 -324h-47zM194 706l-63 -339h187q56 0 96.5 5.5t68.5 20t44.5 41t24.5 68.5l12 62q8 42 3 69.5t-24 43.5
t-52.5 22.5t-81.5 6.5h-215z" />
    <glyph glyph-name="S" unicode="S" horiz-adv-x="553" 
d="M481 202q-9 -46 -26 -84.5t-48.5 -67t-82 -44.5t-125.5 -16q-51 0 -106 8t-108 29l9 47q61 -25 115 -32.5t101 -7.5q95 0 151 38t73 129q7 34 4.5 57t-15.5 38.5t-37.5 26.5t-62.5 22l-114 33q-80 23 -106 70.5t-10 124.5q10 52 30 87.5t52.5 57.5t78.5 32t106 10
q99 0 173 -23l-8 -40q-38 11 -82.5 15.5t-83.5 4.5q-49 0 -86.5 -6.5t-64.5 -24t-45 -47t-27 -75.5q-11 -59 9.5 -92.5t85.5 -52.5l111 -32q47 -14 77.5 -30t46.5 -37t19 -50t-4 -68z" />
    <glyph glyph-name="T" unicode="T" horiz-adv-x="595" 
d="M89 750h546l-9 -45h-244l-133 -705h-47l133 705h-255z" />
    <glyph glyph-name="U" unicode="U" horiz-adv-x="696" 
d="M198 750l-88 -469q-25 -131 17.5 -190t159.5 -59q118 0 184 61t92 195l87 462h46l-89 -473q-14 -74 -39 -128.5t-63.5 -90.5t-92.5 -53.5t-125 -17.5q-143 0 -198 71.5t-27 218.5l89 473h47z" />
    <glyph glyph-name="V" unicode="V" horiz-adv-x="634" 
d="M130 750l102 -538q4 -21 7.5 -39t6.5 -37t5.5 -40t5.5 -47q13 25 24 46t21.5 40t20.5 37.5t22 39.5l301 538h52l-425 -750h-46l-147 750h50z" />
    <glyph glyph-name="W" unicode="W" horiz-adv-x="915" 
d="M533 488q-4 47 -7.5 93t-5.5 107q-26 -62 -45.5 -107.5t-41.5 -92.5l-224 -488h-57l-66 750h47l43 -513q3 -34 7 -78t6 -108q24 64 44 108t37 78l236 513h47l44 -511q2 -34 5 -79.5t3 -104.5q20 51 41 97.5t39 84.5l238 513h50l-353 -750h-47z" />
    <glyph glyph-name="X" unicode="X" horiz-adv-x="591" 
d="M355 228q-13 29 -26.5 63.5t-26.5 68.5q-29 -40 -56 -73t-47 -59l-185 -228h-58l316 385l-164 365h51l88 -203q17 -37 29.5 -69t27.5 -67l107 132l166 207h58l-301 -365l171 -385h-52z" />
    <glyph glyph-name="Y" unicode="Y" horiz-adv-x="571" 
d="M293 310l-58 -310h-46l57 308l-172 442h47l107 -284q6 -16 11 -29.5t9.5 -27t10 -29t12.5 -36.5q12 18 22.5 33t20 29t20 28t23.5 32l206 284h56z" />
    <glyph glyph-name="Z" unicode="Z" horiz-adv-x="605" 
d="M148 158l-102 -114h464l-8 -44h-522l6 37l476 555l102 114h-437l8 44h496l-7 -37z" />
    <glyph glyph-name="bracketleft" unicode="[" horiz-adv-x="356" 
d="M179 831h246l-8 -42h-201l-169 -911h200l-8 -42h-247z" />
    <glyph glyph-name="backslash" unicode="\" horiz-adv-x="466" 
d="M335 -164h-45l-175 995h45z" />
    <glyph glyph-name="bracketright" unicode="]" horiz-adv-x="356" 
d="M164 -164h-240l8 42h195l172 911h-201l8 42h246z" />
    <glyph glyph-name="asciicircum" unicode="^" horiz-adv-x="535" 
d="M327 747h25l119 -302h-45l-92 243h-3l-184 -243h-52z" />
    <glyph glyph-name="underscore" unicode="_" horiz-adv-x="422" 
d="M-76 -40h421l-7 -41h-421z" />
    <glyph glyph-name="grave" unicode="`" horiz-adv-x="582" 
d="M379 606h-47l-79 134h61z" />
    <glyph glyph-name="a" unicode="a" horiz-adv-x="513" 
d="M336 0l8 68q-17 -11 -41.5 -24.5t-54.5 -25.5t-63.5 -20t-67.5 -8q-70 0 -100 38t-15 119l5 26q8 45 28.5 73.5t51.5 44.5t71.5 21.5t89.5 5.5h140l11 58q6 32 8 58.5t-7.5 45t-34.5 29t-72 10.5q-35 0 -80.5 -7.5t-88.5 -23.5l8 42q45 16 87.5 23t81.5 7q58 0 90 -14.5
t46 -39.5t13 -59t-9 -74l-68 -373h-37zM381 279h-132q-44 0 -78 -4.5t-58.5 -17t-40 -35t-22.5 -57.5l-4 -20q-11 -60 9 -87.5t70 -27.5q30 0 62 7.5t62.5 18.5t56.5 25t44 28z" />
    <glyph glyph-name="b" unicode="b" horiz-adv-x="551" 
d="M355 560q40 0 69.5 -13.5t47.5 -37.5t23.5 -57.5t-1.5 -73.5l-33 -176q-12 -63 -32.5 -104t-48.5 -65.5t-63.5 -34t-77.5 -9.5q-47 0 -94 16t-93 54l-17 -59h-30l142 757l47 17l-55 -289q17 11 40 24t50 24.5t59 19t67 7.5zM66 94q18 -17 39.5 -29t44 -20t44.5 -12t41 -4
q78 0 122 42.5t63 143.5l28 148q8 44 4 74t-18.5 48t-39 26t-55.5 8q-50 0 -99.5 -20.5t-108.5 -57.5z" />
    <glyph glyph-name="c" unicode="c" horiz-adv-x="477" 
d="M448 499q-22 8 -52.5 14t-77.5 6q-100 0 -156.5 -49t-75.5 -152l-15 -84q-20 -107 17.5 -155t141.5 -48q30 0 67 5.5t77 20.5l-8 -41q-35 -15 -74.5 -20.5t-74.5 -5.5q-117 0 -165 61t-24 193l15 81q12 69 38 114.5t62 72.5t81.5 37.5t97.5 10.5q40 0 75 -6t58 -16z" />
    <glyph glyph-name="d" unicode="d" horiz-adv-x="568" 
d="M157 -10q-44 0 -73 14.5t-45.5 40.5t-20.5 61t4 76l32 169q11 60 33.5 100t55 64.5t73.5 34.5t89 10q21 0 45.5 -3.5t48 -9t43.5 -13t32 -16.5l45 239l49 17l-146 -774h-38l6 64q-19 -12 -43.5 -25t-54 -24t-63.5 -18t-72 -7zM467 478q-11 8 -30 15.5t-41.5 13t-46.5 9
t-45 3.5q-44 0 -79 -9.5t-60.5 -31.5t-43 -57.5t-26.5 -87.5l-28 -153q-16 -84 13 -117t94 -33q28 0 58 6.5t59.5 17t56 24.5t49.5 29z" />
    <glyph glyph-name="e" unicode="e" horiz-adv-x="530" 
d="M78 265l-6 -31q-12 -63 -6.5 -102.5t27.5 -62t60 -30.5t92 -8q29 0 64.5 5.5t71.5 19.5l-8 -40q-33 -14 -73.5 -20t-74.5 -6q-66 0 -109.5 16t-66.5 48t-27.5 78.5t7.5 108.5l11 58q13 72 39 122t61 80.5t78 44.5t91 14t84 -13.5t58 -43t28 -77.5t-6 -117l-8 -44h-387z
M432 313q20 102 -7 154.5t-121 52.5q-38 0 -73 -12t-64.5 -37t-50.5 -64.5t-30 -93.5l-2 -11h346z" />
    <glyph glyph-name="f" unicode="f" horiz-adv-x="344" 
d="M359 546l-8 -41h-162l-95 -505h-45l95 505h-99l7 41h100l19 104q6 35 19.5 59t32.5 38.5t43 20.5t52 6q29 0 52.5 -3.5t37.5 -7.5l-6 -36q-17 3 -34 5t-35 2q-23 0 -42 -2.5t-34 -12t-26 -28t-17 -51.5l-18 -94h163z" />
    <glyph glyph-name="g" unicode="g" horiz-adv-x="566" 
d="M386 70q-19 -12 -43.5 -24.5t-53.5 -23.5t-61.5 -18t-68.5 -7q-44 0 -74 14.5t-46.5 40.5t-20.5 61t4 76l31 162q11 60 33.5 100t54.5 64.5t73 34.5t89 10q54 0 98 -15.5t69 -32.5l12 38h39l-110 -591q-17 -92 -71 -137t-166 -45q-13 0 -30 1t-35 3t-35.5 5.5t-29.5 8.5
l7 40q29 -11 63 -14.5t55 -3.5q39 0 71.5 6.5t57.5 22.5t42.5 43.5t25.5 69.5zM461 475q-23 17 -67 30.5t-91 13.5q-44 0 -79 -9.5t-60.5 -31.5t-43 -57.5t-26.5 -87.5l-27 -146q-16 -81 12 -115.5t92 -34.5q28 0 59 7t60 18t56 25t48 29z" />
    <glyph glyph-name="h" unicode="h" horiz-adv-x="555" 
d="M368 0l71 378q6 29 8 54.5t-5.5 44.5t-27.5 30t-58 11q-51 0 -107.5 -20.5t-115.5 -55.5l-84 -442h-44l142 757l49 17l-55 -288q21 13 47.5 26.5t55 24t58.5 17t59 6.5q81 0 111 -41.5t16 -119.5l-75 -399h-45z" />
    <glyph glyph-name="i" unicode="i" horiz-adv-x="197" 
d="M5 0l103 546h44l-103 -546h-44zM175 675h-48l13 70h49z" />
    <glyph glyph-name="j" unicode="j" horiz-adv-x="201" 
d="M34 -106q-11 -59 -41 -86t-92 -27q-21 0 -43.5 3t-42.5 8l8 41q19 -5 37 -7.5t47 -2.5q38 0 57 18.5t27 60.5l121 644h45zM179 675h-48l13 70h49z" />
    <glyph glyph-name="k" unicode="k" horiz-adv-x="484" 
d="M110 322h88l230 224h61l-258 -246l163 -300h-50l-148 282h-93l-54 -282h-44l142 757l49 17z" />
    <glyph glyph-name="l" unicode="l" horiz-adv-x="199" 
d="M5 0l140 757l49 17l-145 -774h-44z" />
    <glyph glyph-name="m" unicode="m" horiz-adv-x="845" 
d="M659 0l73 392q5 29 5.5 52t-7.5 39.5t-26 25.5t-49 9q-40 0 -89 -18.5t-110 -60.5l-2 -20t-3 -21l-75 -398h-44l73 393q4 23 5.5 45.5t-5.5 40t-24.5 28.5t-50.5 11q-42 0 -90 -18t-108 -58l-83 -442h-44l102 546h37l-5 -61q45 31 96 53t100 22q51 0 80.5 -21t37.5 -60
q52 36 105 58.5t102 22.5q73 0 103 -41t15 -120l-75 -399h-44z" />
    <glyph glyph-name="n" unicode="n" horiz-adv-x="555" 
d="M368 0l71 377q6 29 8 55t-5 45t-27 30t-58 11q-94 0 -225 -76l-83 -442h-44l102 546h37l-6 -62q22 13 48 27t55 24.5t60 17.5t61 7q80 0 110 -41.5t16 -119.5l-75 -399h-45z" />
    <glyph glyph-name="o" unicode="o" horiz-adv-x="569" 
d="M490 239q-23 -121 -95.5 -185t-184.5 -64q-111 0 -158 67.5t-24 188.5l13 69q23 121 95 183t183 62q112 0 159.5 -65.5t24.5 -186.5zM459 310q18 102 -17 155.5t-129 53.5q-44 0 -82 -13.5t-68 -40t-50.5 -65.5t-29.5 -90l-12 -70q-18 -98 16 -153.5t127 -55.5
q95 0 154.5 55t77.5 154z" />
    <glyph glyph-name="p" unicode="p" horiz-adv-x="568" 
d="M111 546h36l-4 -61q19 12 43.5 25t52.5 24t60 18.5t67 7.5q42 0 73 -13.5t49.5 -37.5t24.5 -58t-2 -74l-34 -175q-12 -62 -32.5 -103t-51.5 -65.5t-71 -34.5t-91 -10q-42 0 -88 10t-84 27l-46 -242h-45zM67 66q37 -19 83 -28t87 -9q45 0 78 10.5t56.5 33t39 58t24.5 85.5
l29 146q9 45 5 75t-19 48.5t-40 26t-58 7.5q-53 0 -109 -23t-106 -55z" />
    <glyph glyph-name="q" unicode="q" horiz-adv-x="568" 
d="M157 -10q-44 0 -73 14.5t-45.5 40.5t-20.5 61t4 76l32 169q11 60 33.5 100t54.5 64.5t72.5 34.5t88.5 10q26 0 51.5 -4.5t48.5 -12t42 -17t31 -19.5l13 39h36l-143 -762h-45l50 267q-39 -23 -99.5 -42t-130.5 -19zM465 468q-27 21 -72 36t-93 15q-43 0 -76.5 -10t-59 -32
t-43 -57.5t-26.5 -86.5l-27 -144q-17 -89 11 -124t93 -35q27 0 57 5t60 14t57.5 20.5t48.5 25.5z" />
    <glyph glyph-name="r" unicode="r" horiz-adv-x="361" 
d="M352 514q-62 -5 -120.5 -33.5t-106.5 -76.5l-76 -404h-44l103 546h37l-12 -98q42 44 102 76t126 36z" />
    <glyph glyph-name="s" unicode="s" horiz-adv-x="449" 
d="M367 144q-7 -34 -20.5 -62.5t-39 -48.5t-64.5 -31.5t-96 -11.5q-15 0 -35.5 1.5t-43 5t-45 9t-41.5 14.5l8 43q47 -19 88 -25.5t74 -6.5q44 0 74.5 8.5t50 24t30 36.5t15.5 45q4 21 4.5 37.5t-9 30t-32 25t-65.5 22.5l-47 12q-41 10 -66 24.5t-37 33.5t-13.5 42t3.5 52
q7 38 25.5 64t45.5 42t61.5 23t75.5 7q40 0 76.5 -5.5t61.5 -15.5l-7 -38q-32 9 -63 14t-71 5q-75 0 -113.5 -25.5t-47.5 -74.5q-4 -21 -4.5 -37t8.5 -29.5t30 -24.5t59 -21l47 -12q45 -11 71.5 -25t40 -32t15.5 -41.5t-4 -53.5z" />
    <glyph glyph-name="t" unicode="t" horiz-adv-x="359" 
d="M181 505l-69 -366q-6 -33 -6 -54t8 -33t23 -16.5t39 -4.5q23 0 49.5 5t49.5 17l-8 -41q-18 -11 -45 -16.5t-56 -5.5q-66 0 -90 32t-11 100l72 383h-97l8 41h97l24 132l48 18l-28 -150h177l-7 -41h-178z" />
    <glyph glyph-name="u" unicode="u" horiz-adv-x="557" 
d="M148 546l-73 -391q-5 -28 -4.5 -50.5t10 -38.5t29 -25t52.5 -9q51 0 111.5 22.5t112.5 57.5l82 434h44l-102 -546h-38l6 67q-19 -13 -44 -26.5t-53.5 -25t-59.5 -18.5t-61 -7q-84 0 -114.5 40.5t-16.5 118.5l75 397h44z" />
    <glyph glyph-name="v" unicode="v" horiz-adv-x="479" 
d="M142 0l-102 546l44 -1l64 -363q4 -23 7 -41.5t5 -35t4 -32.5t5 -35q12 23 20.5 40t16.5 32t17 32t22 40l202 364h48l-305 -546h-48z" />
    <glyph glyph-name="w" unicode="w" horiz-adv-x="744" 
d="M89 546l45 -356q5 -36 8 -66t6 -73h1q10 24 18 42t14.5 33.5t13.5 30.5t16 33l173 356h39l37 -356q4 -35 7 -66t5 -73h1q19 41 32 72t31 67l176 356h42l-269 -546h-42l-36 353q-5 42 -8.5 74.5t-3.5 65.5h-1q-12 -33 -26 -62.5t-34 -71.5l-171 -359h-44l-74 546h44z" />
    <glyph glyph-name="x" unicode="x" horiz-adv-x="492" 
d="M174 404q7 -14 13 -25t12 -22.5t13 -24.5t16 -30q14 17 25.5 30.5t22 25t20.5 22.5t21 24l124 142h52l-239 -267l146 -279h-48l-69 132q-15 28 -29.5 55.5t-30.5 62.5q-33 -37 -61 -66.5t-50 -53.5l-118 -130h-55l258 277l-144 269h48z" />
    <glyph glyph-name="y" unicode="y" horiz-adv-x="509" 
d="M85 -216h-47l125 216l-114 546h47l67 -340l8.5 -42.5t7 -34.5t6.5 -36.5t8 -46.5q13 26 24 46t21 38t20.5 36t22.5 40l194 340h50z" />
    <glyph glyph-name="z" unicode="z" horiz-adv-x="460" 
d="M120 148q-14 -15 -25.5 -28l-23 -26t-23.5 -26t-27 -29h352l-6 -39h-407l5 32l351 390q24 26 42.5 46.5t37.5 38.5h-330l8 39h382l-6 -32z" />
    <glyph glyph-name="braceleft" unicode="{" horiz-adv-x="422" 
d="M45 369q64 2 95.5 25.5t41.5 77.5l38 205q15 78 54 116t111 38h104l-8 -42h-89q-25 0 -45.5 -4.5t-36.5 -17.5t-27.5 -35t-17.5 -57l-38 -200q-4 -20 -10.5 -40.5t-19 -38t-32 -31t-49.5 -20.5q26 -6 40.5 -18t21 -28.5t5.5 -37t-5 -42.5l-43 -241q-7 -35 -2.5 -55
t17 -30t32 -12.5t43.5 -2.5h85l-7 -42h-91q-75 0 -105 34.5t-16 115.5l44 236q11 55 -12 78.5t-86 25.5z" />
    <glyph glyph-name="bar" unicode="|" horiz-adv-x="272" 
d="M59 -164h-46l187 995h47z" />
    <glyph glyph-name="braceright" unicode="}" horiz-adv-x="422" 
d="M394 326q-65 -2 -95.5 -26t-40.5 -79l-47 -245q-14 -77 -50 -108.5t-108 -31.5h-108l8 42h88q24 0 44 2.5t36.5 12.5t28 30t18.5 55l46 243q4 22 11.5 43t19.5 38.5t31 30.5t46 19q-27 7 -41.5 19.5t-20 29.5t-4.5 36.5t5 39.5l38 198q6 35 3 57t-15 35t-31 17.5t-44 4.5
h-94l8 42h97q72 0 103.5 -38t16.5 -116l-39 -206q-10 -54 12.5 -77t85.5 -25z" />
    <glyph glyph-name="asciitilde" unicode="~" horiz-adv-x="582" 
d="M373 268q-37 0 -58.5 16.5t-38 36.5t-33 36.5t-44.5 16.5q-29 0 -48.5 -11.5t-32.5 -28.5t-21 -36t-12 -34h-45q9 32 23.5 59.5t34 48t45.5 32.5t58 12q36 0 57.5 -16.5t38.5 -36.5t34.5 -36.5t45.5 -16.5q45 0 71.5 32t40.5 78h45q-9 -31 -23 -58.5t-33.5 -48.5
t-45.5 -33t-59 -12z" />
    <glyph glyph-name="uni00A0" unicode="&#xa0;" horiz-adv-x="0" 
 />
    <glyph glyph-name="exclamdown" unicode="&#xa1;" horiz-adv-x="267" 
d="M154 400h36l-93 -565h-56zM223 508h-63l14 77h63z" />
    <glyph glyph-name="cent" unicode="&#xa2;" horiz-adv-x="495" 
d="M388 664q35 -2 67.5 -7t52.5 -13l-7 -38q-40 16 -121 19l-92 -490q29 2 65.5 8t71.5 19l-9 -40q-30 -13 -66.5 -19t-68.5 -8l-18 -95h-47l18 95q-103 6 -150 65.5t-22 184.5l15 80q13 66 38.5 110.5t60 72.5t76.5 41t89 15l16 86h47zM103 338q-20 -100 13.5 -148
t124.5 -54l92 488q-89 -7 -141.5 -55t-71.5 -144z" />
    <glyph glyph-name="sterling" unicode="&#xa3;" horiz-adv-x="556" 
d="M536 705q-24 7 -47 10.5t-60 3.5q-95 0 -143.5 -53.5t-68.5 -155.5l-21 -112h244l-9 -44h-244l-26 -139q-5 -26 -11 -48t-16 -41.5t-26 -39t-40 -41.5h394l-8 -45h-461l6 37q27 20 47 40.5t33.5 42t22 45t13.5 49.5l26 140h-78l9 44h78l22 117q10 54 28.5 99.5t48.5 78.5
t73.5 51.5t104.5 18.5q29 0 61.5 -4t56.5 -12z" />
    <glyph glyph-name="currency" unicode="&#xa4;" horiz-adv-x="734" 
d="M497 182q-26 -19 -59 -29.5t-71 -10.5t-71 10.5t-59 30.5l-105 -105l-32 32l103 103q-26 29 -39.5 68t-13.5 84t13.5 83.5t39.5 67.5l-103 103l32 32l104 -105q27 20 60 30.5t71 10.5t71 -10.5t60 -29.5l104 104l32 -32l-103 -103q26 -29 40.5 -67.5t14.5 -83.5
q0 -46 -14.5 -85t-40.5 -68l103 -102l-32 -32zM367 182q39 0 72 13.5t56 38t36 58t13 73.5t-13 73.5t-36.5 57.5t-56 37.5t-71.5 13.5t-71 -13.5t-55 -37.5t-36 -57.5t-13 -73.5t13 -73.5t36 -58t55 -38t71 -13.5z" />
    <glyph glyph-name="yen" unicode="&#xa5;" horiz-adv-x="571" 
d="M31 249h215l13 69l-13 33h-195l10 46h167l-136 353h50l102 -274q10 -29 19 -56t24 -67q25 40 44.5 67t41.5 56l201 274h55l-265 -353h159l-10 -46h-184l-23 -31l-14 -71h201l-8 -46h-202l-38 -203h-46l38 203h-214z" />
    <glyph glyph-name="brokenbar" unicode="&#xa6;" horiz-adv-x="272" 
d="M134 216l-72 -380h-46l72 380h46zM132 451l72 380h46l-72 -380h-46z" />
    <glyph glyph-name="section" unicode="&#xa7;" horiz-adv-x="559" 
d="M68 314q11 54 44.5 91.5t106.5 57.5q-42 24 -51.5 58t0.5 79q14 76 69.5 107.5t136.5 31.5q40 0 78 -5.5t63 -15.5l-7 -38q-32 9 -63 14t-72 5q-78 0 -115 -27.5t-47 -76.5q-4 -21 -4 -38t9 -31t29.5 -26.5t57.5 -23.5l47 -14q44 -13 70 -27.5t39 -33.5t14 -43t-5 -56
q-11 -56 -44.5 -95t-104.5 -58q41 -24 49.5 -57t0.5 -78q-8 -38 -25.5 -64.5t-44 -43t-61 -24t-74.5 -7.5t-78.5 5.5t-64.5 15.5l8 38q32 -9 62.5 -14t70.5 -5q79 0 116.5 27.5t47.5 76.5q4 21 4 38t-9 31t-30 26.5t-59 23.5l-46 14q-44 13 -70 29t-38.5 35.5t-14 43.5
t4.5 54zM277 440q-44 -6 -73.5 -19t-48.5 -30t-29.5 -38t-14.5 -45q-4 -21 -4.5 -38t9 -31t32 -26t64.5 -25l47 -14q43 6 72.5 18.5t48.5 29.5t29.5 38.5t15.5 45.5q4 21 4.5 38t-9 31t-32 26t-65.5 25z" />
    <glyph glyph-name="dieresis" unicode="&#xa8;" horiz-adv-x="582" 
d="M245 717h64l-16 -83h-64zM408 717h64l-16 -83h-64z" />
    <glyph glyph-name="copyright" unicode="&#xa9;" horiz-adv-x="840" 
d="M419 3q71 0 130.5 24.5t102.5 69t67 105.5t24 133q0 73 -24 133.5t-67.5 104.5t-103 68.5t-129.5 24.5t-129 -24.5t-102 -68.5t-67 -104.5t-24 -133.5q0 -72 24 -133t67 -105.5t102 -69t129 -24.5zM419 -33q-81 0 -148 29t-115 79t-75 117t-27 143t27 143t75 116.5
t115 78.5t148 29q82 0 149.5 -29t116 -78.5t75 -116.5t26.5 -143t-27 -143t-75.5 -117t-116 -79t-148.5 -29zM547 488q-18 7 -42 11.5t-60 4.5q-67 0 -101 -33t-34 -105v-63q0 -40 7.5 -66.5t24 -43t43 -23.5t63.5 -7q23 0 51 4.5t56 15.5v-41q-26 -12 -55 -16t-55 -4
q-89 0 -135 42t-46 140v57q0 51 13 86.5t37 57t57 31t73 9.5q30 0 56.5 -4.5t46.5 -11.5v-41z" />
    <glyph glyph-name="ordfeminine" unicode="&#xaa;" horiz-adv-x="489" 
d="M343 289l8 59q-16 -10 -36.5 -22t-44 -22t-50 -16.5t-54.5 -6.5q-62 0 -89.5 32.5t-14.5 101.5l4 22q8 41 26 66t45 38.5t62 18t77 4.5h114l9 49q5 27 6.5 49.5t-6.5 38.5t-28.5 24.5t-59.5 8.5q-32 0 -69 -6.5t-74 -20.5l7 41q38 14 75 20t70 6q50 0 78 -13.5t40 -36
t11 -53.5t-7 -65l-60 -317h-39zM383 525h-109q-37 0 -65 -3.5t-48.5 -14t-33 -29t-18.5 -47.5l-3 -14q-11 -52 5.5 -74t57.5 -22q51 0 99 19.5t88 44.5z" />
    <glyph glyph-name="guillemotleft" unicode="&#xab;" horiz-adv-x="547" 
d="M40 255l7 40l227 204h67l-249 -225l-1 -5l153 -221h-58zM257 255l7 40l227 204h67l-249 -225l-1 -5l153 -221h-58z" />
    <glyph glyph-name="logicalnot" unicode="&#xac;" horiz-adv-x="586" 
d="M130 379h445l-49 -261h-40l42 222h-405z" />
    <glyph glyph-name="uni00AD" unicode="&#xad;" horiz-adv-x="833" 
 />
    <glyph glyph-name="registered" unicode="&#xae;" horiz-adv-x="630" 
d="M314 215q48 0 88 17t69 47t45 71.5t16 89.5q0 49 -16.5 90t-45.5 71t-69 46.5t-87 16.5t-86.5 -16.5t-68.5 -46.5t-45 -71t-16 -90q0 -48 16 -89.5t45 -71.5t68.5 -47t86.5 -17zM314 183q-56 0 -103 20t-80.5 55t-52.5 82t-19 100t19 100t52.5 82t80.5 55t103 20
q57 0 104.5 -20t81 -55t52.5 -82t19 -100t-19 -100t-53 -82t-81 -55t-104 -20zM224 584h99q19 0 36.5 -3t31 -12t21.5 -24.5t8 -40.5v-12q0 -20 -4.5 -34t-12 -23t-17 -13.5t-18.5 -7.5l65 -114h-45l-60 110h-65v-110h-39v284zM263 549v-104h55q33 0 47 9t14 35v17
q0 25 -12.5 34t-47.5 9h-56z" />
    <glyph glyph-name="macron" unicode="&#xaf;" horiz-adv-x="582" 
d="M149 710h274l-7 -40h-274z" />
    <glyph glyph-name="degree" unicode="&#xb0;" horiz-adv-x="401" 
d="M218 465q25 0 48.5 10t41.5 28t28.5 43t10.5 56q0 40 -22.5 62t-63.5 22q-25 0 -48.5 -10t-41.5 -28t-28.5 -43t-10.5 -56q0 -40 22.5 -62t63.5 -22zM211 431q-56 0 -86 33.5t-30 83.5q0 34 12.5 65.5t35.5 55t54.5 37.5t70.5 14q56 0 86 -33.5t30 -83.5q0 -35 -12.5 -66
t-35.5 -54.5t-54.5 -37.5t-70.5 -14z" />
    <glyph glyph-name="plusminus" unicode="&#xb1;" horiz-adv-x="594" 
d="M358 596l-39 -210h217l-9 -46h-217l-38 -206h-45l38 206h-211l9 46h211l39 210h45zM2 76h473l-9 -46h-473z" />
    <glyph glyph-name="twosuperior" unicode="&#xb2;" horiz-adv-x="384" 
d="M32 328l246 211q19 16 31.5 28.5t20 23t11.5 20.5t6 22l4 21q3 14 1.5 28t-11.5 25.5t-31 18.5t-58 7q-33 0 -68.5 -8.5t-64.5 -19.5l8 42q26 11 63.5 19t68.5 8q79 0 112 -33.5t22 -90.5l-4 -20q-3 -15 -7.5 -27.5t-12.5 -25.5t-21 -27t-33 -31l-222 -188h255l-9 -42
h-315z" />
    <glyph glyph-name="threesuperior" unicode="&#xb3;" horiz-adv-x="398" 
d="M169 556h54q28 0 51.5 6.5t40.5 20t27 35.5t10 53q0 30 -22 46t-77 16q-32 0 -64.5 -7t-62.5 -18l8 41q12 5 28 9.5t33 8t34 5.5t32 2q72 0 103.5 -28t31.5 -73q0 -23 -6 -45t-19.5 -41t-35 -32.5t-53.5 -19.5q42 -8 61.5 -32.5t19.5 -58.5q0 -82 -52 -123t-146 -41
q-42 0 -75.5 7.5t-55.5 16.5l8 43q26 -11 59.5 -18t68.5 -7q34 0 62 6.5t47.5 21t30 39t10.5 60.5q0 20 -8 33t-22 20.5t-33.5 10t-43.5 2.5h-52z" />
    <glyph glyph-name="acute" unicode="&#xb4;" horiz-adv-x="600" 
d="M343 740h63l-125 -134h-50z" />
    <glyph glyph-name="mu" unicode="&#xb5;" horiz-adv-x="540" 
d="M106 546h44l-76 -388q-6 -28 -0.5 -51t19.5 -39.5t35 -26t47 -9.5q62 0 112 22t98 58l85 434h44l-106 -546h-38l6 67q-15 -11 -34.5 -24.5t-44 -25t-54.5 -19.5t-66 -8q-44 0 -77 17t-45 48l-54 -271h-44z" />
    <glyph glyph-name="paragraph" unicode="&#xb6;" horiz-adv-x="545" 
d="M531 750l-169 -872h-46l159 822h-100l-159 -822h-45l90 468q-50 1 -86.5 16t-59.5 42t-31 63t1 79l8 41q17 87 83 125t167 38h188z" />
    <glyph glyph-name="periodcentered" unicode="&#xb7;" horiz-adv-x="255" 
d="M108 384h63l-14 -77h-63z" />
    <glyph glyph-name="cedilla" unicode="&#xb8;" horiz-adv-x="581" 
d="M203 -262q-19 0 -40 1.5t-41 5.5l8 41q14 -2 34 -4t38 -2q32 0 51 5t30 12.5t15 17.5t6 21l2 11q2 12 1.5 22t-9 17t-28 11t-55.5 4h-15l23 120h47l-15 -80q65 -4 84.5 -28t11.5 -68l-2 -11q-6 -31 -19 -49.5t-31.5 -29t-43 -14t-52.5 -3.5z" />
    <glyph glyph-name="onesuperior" unicode="&#xb9;" horiz-adv-x="368" 
d="M47 329h128l72 379l-146 -64l9 45l160 76h31l-83 -436h116l-8 -40h-287z" />
    <glyph glyph-name="ordmasculine" unicode="&#xba;" horiz-adv-x="476" 
d="M460 492q-20 -104 -81.5 -158t-155.5 -54q-97 0 -138 59.5t-21 163.5l12 60q20 104 81.5 157.5t155.5 53.5t137 -58t22 -164zM428 559q17 84 -14 128t-106 44t-123 -44t-65 -128l-12 -64q-16 -81 14.5 -126.5t105.5 -45.5q77 0 124.5 45.5t63.5 126.5z" />
    <glyph glyph-name="guillemotright" unicode="&#xbb;" horiz-adv-x="581" 
d="M469 292l-7 -40l-227 -204h-67l249 225l1 5l-153 221h58zM252 292l-7 -40l-227 -204h-67l249 225l1 5l-153 221h58z" />
    <glyph glyph-name="onequarter" unicode="&#xbc;" horiz-adv-x="894" 
d="M457 31l7 37l304 331h48l-62 -330h73l-7 -38h-73l-21 -108h-42l21 108h-248zM712 69l51 271l-250 -271h199zM47 329h128l72 379l-146 -64l9 45l160 76h31l-83 -436h116l-8 -40h-287zM822 773h52l-705 -853h-52z" />
    <glyph glyph-name="onehalf" unicode="&#xbd;" horiz-adv-x="949" 
d="M545 -38l246 211q19 16 31.5 28.5t20 23t11.5 20.5t6 22l4 21q3 14 1.5 28t-11.5 25.5t-31 18.5t-58 7q-33 0 -68.5 -8.5t-64.5 -19.5l8 42q26 11 63.5 19t68.5 8q79 0 112 -33.5t22 -90.5l-4 -20q-3 -15 -7.5 -27.5t-12.5 -25.5t-21 -27t-33 -31l-222 -188h255l-9 -42
h-315zM47 329h128l72 379l-146 -64l9 45l160 76h31l-83 -436h116l-8 -40h-287zM822 773h52l-705 -853h-52z" />
    <glyph glyph-name="threequarters" unicode="&#xbe;" horiz-adv-x="889" 
d="M452 31l7 37l304 331h48l-62 -330h73l-7 -38h-73l-21 -108h-42l21 108h-248zM817 773h52l-705 -853h-52zM169 556h54q28 0 51.5 6.5t40.5 20t27 35.5t10 53q0 30 -22 46t-77 16q-32 0 -64.5 -7t-62.5 -18l8 41q12 5 28 9.5t33 8t34 5.5t32 2q72 0 103.5 -28t31.5 -73
q0 -23 -6 -45t-19.5 -41t-35 -32.5t-53.5 -19.5q42 -8 61.5 -32.5t19.5 -58.5q0 -82 -52 -123t-146 -41q-42 0 -75.5 7.5t-55.5 16.5l8 43q26 -11 59.5 -18t68.5 -7q34 0 62 6.5t47.5 21t30 39t10.5 60.5q0 20 -8 33t-22 20.5t-33.5 10t-43.5 2.5h-52zM707 69l51 271
l-250 -271h199z" />
    <glyph glyph-name="questiondown" unicode="&#xbf;" horiz-adv-x="501" 
d="M335 331q-5 -27 -13 -48t-23 -39.5t-39.5 -37.5t-62.5 -42q-25 -15 -45.5 -30t-36.5 -32.5t-26.5 -38.5t-15.5 -48q-6 -31 -4.5 -57t17 -45t47.5 -29.5t88 -10.5q46 0 93 11t90 28l-7 -44q-38 -16 -83 -28t-95 -12q-61 0 -101.5 13t-63.5 37.5t-29 59.5t2 80
q7 38 22 65.5t35 48.5t44.5 38t52.5 34q32 20 51.5 35t31 29t17 29.5t9.5 35.5l13 69h46zM376 508h-63l14 77h63z" />
    <glyph glyph-name="Agrave" unicode="&#xc0;" horiz-adv-x="644" 
d="M564 0h-48l-47 231h-350l-129 -231h-50l423 750h45zM461 275l-53 270l-27 157q-14 -25 -24.5 -44.5t-20 -37.5t-20 -36.5t-22.5 -40.5l-149 -268h316zM417 806h-47l-79 134h61z" />
    <glyph glyph-name="Aacute" unicode="&#xc1;" horiz-adv-x="644" 
d="M564 0h-48l-47 231h-350l-129 -231h-50l423 750h45zM461 275l-53 270l-27 157q-14 -25 -24.5 -44.5t-20 -37.5t-20 -36.5t-22.5 -40.5l-149 -268h316zM485 940h63l-125 -134h-50z" />
    <glyph glyph-name="Acircumflex" unicode="&#xc2;" horiz-adv-x="644" 
d="M564 0h-48l-47 231h-350l-129 -231h-50l423 750h45zM461 275l-53 270l-27 157q-14 -25 -24.5 -44.5t-20 -37.5t-20 -36.5t-22.5 -40.5l-149 -268h316zM401 954h46l66 -148h-39l-53 110l-97 -110h-45z" />
    <glyph glyph-name="Atilde" unicode="&#xc3;" horiz-adv-x="644" 
d="M564 0h-48l-47 231h-350l-129 -231h-50l423 750h45zM461 275l-53 270l-27 157q-14 -25 -24.5 -44.5t-20 -37.5t-20 -36.5t-22.5 -40.5l-149 -268h316zM458 818q-23 0 -37.5 12t-26 26t-22.5 26t-26 12t-30.5 -16.5t-24.5 -58.5h-41q11 51 37 83t64 32q21 0 35 -12t25 -26
t22 -26t27 -12q22 0 34.5 16.5t23.5 60.5h39q-5 -23 -12 -44t-18.5 -37.5t-28 -26t-40.5 -9.5z" />
    <glyph glyph-name="Adieresis" unicode="&#xc4;" horiz-adv-x="644" 
d="M564 0h-48l-47 231h-350l-129 -231h-50l423 750h45zM461 275l-53 270l-27 157q-14 -25 -24.5 -44.5t-20 -37.5t-20 -36.5t-22.5 -40.5l-149 -268h316zM311 917h62l-16 -83h-62zM469 917h62l-16 -83h-62z" />
    <glyph glyph-name="Aring" unicode="&#xc5;" horiz-adv-x="644" 
d="M564 0h-48l-47 231h-350l-129 -231h-50l423 750h45zM461 275l-53 270l-27 157q-14 -25 -24.5 -44.5t-20 -37.5t-20 -36.5t-22.5 -40.5l-149 -268h316zM433 988q35 0 55.5 -21.5t20.5 -52.5q0 -48 -31 -80.5t-79 -32.5q-34 0 -54.5 21.5t-20.5 52.5q0 48 30.5 80.5
t78.5 32.5zM405 835q29 0 48.5 21.5t19.5 53.5q0 20 -11 32t-34 12q-29 0 -48.5 -21.5t-19.5 -53.5q0 -20 11 -32t34 -12z" />
    <glyph glyph-name="AE" unicode="&#xc6;" horiz-adv-x="995" 
d="M1010 750l-9 -45h-389l-57 -292h357l-8 -43h-357l-63 -325h403l-8 -45h-450l44 231h-281l-194 -231h-58l627 750h443zM228 275h254l80 414q-15 -23 -33 -47t-43 -54z" />
    <glyph glyph-name="Ccedilla" unicode="&#xc7;" horiz-adv-x="598" 
d="M232 -262q-19 0 -40 1.5t-41 5.5l8 41q14 -2 34 -4t38 -2q32 0 51 5t30 12.5t15 17.5t6 21l2 11q2 12 1.5 22t-9 17t-28 11t-55.5 4h-15l17 91q-72 6 -116.5 31.5t-67 68t-25 101t11.5 130.5l25 134q16 86 46.5 144t75.5 93.5t103.5 50.5t131.5 15q53 0 97 -6t76 -19
l-8 -40q-33 11 -74 16.5t-98 5.5q-134 0 -208 -65t-98 -204l-25 -142q-11 -60 -9 -110t23.5 -86.5t68 -56.5t125.5 -20q42 0 90 6t97 23l-8 -43q-24 -9 -50 -14.5t-51.5 -8.5t-47.5 -4.5t-38 -1.5l-9 -49q65 -4 84.5 -28t11.5 -68l-2 -11q-6 -31 -19 -49.5t-31.5 -29
t-43 -14t-52.5 -3.5z" />
    <glyph glyph-name="Egrave" unicode="&#xc8;" horiz-adv-x="573" 
d="M588 750l-9 -45h-385l-55 -292h353l-8 -43h-353l-61 -325h402l-7 -45h-450l141 750h432zM440 806h-47l-79 134h61z" />
    <glyph glyph-name="Eacute" unicode="&#xc9;" horiz-adv-x="573" 
d="M588 750l-9 -45h-385l-55 -292h353l-8 -43h-353l-61 -325h402l-7 -45h-450l141 750h432zM445 940h63l-125 -134h-50z" />
    <glyph glyph-name="Ecircumflex" unicode="&#xca;" horiz-adv-x="573" 
d="M588 750l-9 -45h-385l-55 -292h353l-8 -43h-353l-61 -325h402l-7 -45h-450l141 750h432zM395 954h46l66 -148h-39l-53 110l-97 -110h-45z" />
    <glyph glyph-name="Edieresis" unicode="&#xcb;" horiz-adv-x="573" 
d="M588 750l-9 -45h-385l-55 -292h353l-8 -43h-353l-61 -325h402l-7 -45h-450l141 750h432zM296 917h62l-16 -83h-62zM454 917h62l-16 -83h-62z" />
    <glyph glyph-name="Igrave" unicode="&#xcc;" horiz-adv-x="218" 
d="M62 0h-47l141 750h47zM210 806h-47l-79 134h61z" />
    <glyph glyph-name="Iacute" unicode="&#xcd;" horiz-adv-x="216" 
d="M62 0h-47l141 750h47zM271 940h63l-125 -134h-50z" />
    <glyph glyph-name="Icircumflex" unicode="&#xce;" horiz-adv-x="216" 
d="M62 0h-47l141 750h47zM188 954h46l66 -148h-39l-53 110l-97 -110h-45z" />
    <glyph glyph-name="Idieresis" unicode="&#xcf;" horiz-adv-x="216" 
d="M62 0h-47l141 750h47zM98 917h62l-16 -83h-62zM256 917h62l-16 -83h-62z" />
    <glyph glyph-name="Eth" unicode="&#xd0;" horiz-adv-x="686" 
d="M26 408h70l65 342h222q76 0 132.5 -14t89.5 -49.5t42.5 -96.5t-8.5 -155l-26 -137q-15 -81 -39 -138t-64.5 -92.5t-103 -51.5t-153.5 -16h-233l68 363h-70zM199 705l-56 -297h268l-8 -45h-269l-59 -318h181q81 0 135.5 15t89 46t53.5 78.5t31 111.5l29 154q14 73 9 122
t-30.5 78.5t-71.5 42t-114 12.5h-188z" />
    <glyph glyph-name="Ntilde" unicode="&#xd1;" horiz-adv-x="689" 
d="M533 0h-50l-228 529q-17 39 -32 76.5t-32 82.5l-129 -688h-47l141 750h51l228 -529q10 -23 18 -42t15 -37t14 -37t15 -42l131 687h46zM494 818q-23 0 -37.5 12t-26 26t-22.5 26t-26 12t-30.5 -16.5t-24.5 -58.5h-41q11 51 37 83t64 32q21 0 35 -12t25 -26t22 -26t27 -12
q22 0 34.5 16.5t23.5 60.5h39q-5 -23 -12 -44t-18.5 -37.5t-28 -26t-40.5 -9.5z" />
    <glyph glyph-name="Ograve" unicode="&#xd2;" 
d="M648 313q-31 -162 -121.5 -243.5t-238.5 -81.5q-146 0 -209 87.5t-33 249.5l22 114q31 161 123 242t238 81t208.5 -86t31.5 -249zM623 426q28 147 -22.5 219.5t-177.5 72.5q-125 0 -204 -72.5t-107 -219.5l-19 -102q-28 -148 23.5 -220t176.5 -72q122 0 202 72t108 220z
M464 806h-47l-79 134h61z" />
    <glyph glyph-name="Oacute" unicode="&#xd3;" 
d="M648 313q-31 -162 -121.5 -243.5t-238.5 -81.5q-146 0 -209 87.5t-33 249.5l22 114q31 161 123 242t238 81t208.5 -86t31.5 -249zM623 426q28 147 -22.5 219.5t-177.5 72.5q-125 0 -204 -72.5t-107 -219.5l-19 -102q-28 -148 23.5 -220t176.5 -72q122 0 202 72t108 220z
M521 940h63l-125 -134h-50z" />
    <glyph glyph-name="Ocircumflex" unicode="&#xd4;" 
d="M648 313q-31 -162 -121.5 -243.5t-238.5 -81.5q-146 0 -209 87.5t-33 249.5l22 114q31 161 123 242t238 81t208.5 -86t31.5 -249zM623 426q28 147 -22.5 219.5t-177.5 72.5q-125 0 -204 -72.5t-107 -219.5l-19 -102q-28 -148 23.5 -220t176.5 -72q122 0 202 72t108 220z
M444 954h46l66 -148h-39l-53 110l-97 -110h-45z" />
    <glyph glyph-name="Otilde" unicode="&#xd5;" 
d="M648 313q-31 -162 -121.5 -243.5t-238.5 -81.5q-146 0 -209 87.5t-33 249.5l22 114q31 161 123 242t238 81t208.5 -86t31.5 -249zM623 426q28 147 -22.5 219.5t-177.5 72.5q-125 0 -204 -72.5t-107 -219.5l-19 -102q-28 -148 23.5 -220t176.5 -72q122 0 202 72t108 220z
M502 818q-23 0 -37.5 12t-26 26t-22.5 26t-26 12t-30.5 -16.5t-24.5 -58.5h-41q11 51 37 83t64 32q21 0 35 -12t25 -26t22 -26t27 -12q22 0 34.5 16.5t23.5 60.5h39q-5 -23 -12 -44t-18.5 -37.5t-28 -26t-40.5 -9.5z" />
    <glyph glyph-name="Odieresis" unicode="&#xd6;" 
d="M648 313q-31 -162 -121.5 -243.5t-238.5 -81.5q-146 0 -209 87.5t-33 249.5l22 114q31 161 123 242t238 81t208.5 -86t31.5 -249zM623 426q28 147 -22.5 219.5t-177.5 72.5q-125 0 -204 -72.5t-107 -219.5l-19 -102q-28 -148 23.5 -220t176.5 -72q122 0 202 72t108 220z
M354 917h62l-16 -83h-62zM512 917h62l-16 -83h-62z" />
    <glyph glyph-name="multiply" unicode="&#xd7;" horiz-adv-x="529" 
d="M505 525l-214 -183l137 -182l-37 -31l-136 182l-214 -182l-29 39l213 182l-136 183l37 31l136 -182l214 182z" />
    <glyph glyph-name="Oslash" unicode="&#xd8;" 
d="M83 77q-31 43 -39.5 105t6.5 143l22 114q31 161 123 242t238 81q126 0 190 -66l84 96h54l-113 -129q54 -86 25 -236l-21 -114q-31 -162 -121.5 -243.5t-238.5 -81.5q-118 0 -182 58l-78 -89h-54zM97 324q-27 -136 18 -210l477 546q-53 58 -165 58q-125 0 -204 -72.5
t-107 -219.5zM627 426q24 127 -12 199l-474 -543q53 -50 156 -50q122 0 202 72t108 220z" />
    <glyph glyph-name="Ugrave" unicode="&#xd9;" horiz-adv-x="706" 
d="M198 750l-88 -469q-25 -131 17.5 -190t159.5 -59q118 0 184 61t92 195l87 462h46l-89 -473q-14 -74 -39 -128.5t-63.5 -90.5t-92.5 -53.5t-125 -17.5q-143 0 -198 71.5t-27 218.5l89 473h47zM477 806h-47l-79 134h61z" />
    <glyph glyph-name="Uacute" unicode="&#xda;" horiz-adv-x="706" 
d="M198 750l-88 -469q-25 -131 17.5 -190t159.5 -59q118 0 184 61t92 195l87 462h46l-89 -473q-14 -74 -39 -128.5t-63.5 -90.5t-92.5 -53.5t-125 -17.5q-143 0 -198 71.5t-27 218.5l89 473h47zM523 940h63l-125 -134h-50z" />
    <glyph glyph-name="Ucircumflex" unicode="&#xdb;" horiz-adv-x="706" 
d="M198 750l-88 -469q-25 -131 17.5 -190t159.5 -59q118 0 184 61t92 195l87 462h46l-89 -473q-14 -74 -39 -128.5t-63.5 -90.5t-92.5 -53.5t-125 -17.5q-143 0 -198 71.5t-27 218.5l89 473h47zM439 954h46l66 -148h-39l-53 110l-97 -110h-45z" />
    <glyph glyph-name="Udieresis" unicode="&#xdc;" horiz-adv-x="706" 
d="M198 750l-88 -469q-25 -131 17.5 -190t159.5 -59q118 0 184 61t92 195l87 462h46l-89 -473q-14 -74 -39 -128.5t-63.5 -90.5t-92.5 -53.5t-125 -17.5q-143 0 -198 71.5t-27 218.5l89 473h47zM349 917h62l-16 -83h-62zM507 917h62l-16 -83h-62z" />
    <glyph glyph-name="Yacute" unicode="&#xdd;" horiz-adv-x="571" 
d="M293 310l-58 -310h-46l57 308l-172 442h47l107 -284q6 -16 11 -29.5t9.5 -27t10 -29t12.5 -36.5q12 18 22.5 33t20 29t20 28t23.5 32l206 284h56zM439 940h63l-125 -134h-50z" />
    <glyph glyph-name="Thorn" unicode="&#xde;" horiz-adv-x="589" 
d="M160 750h47l-30 -155h210q50 0 91 -7.5t67.5 -29.5t36.5 -62t-3 -104l-11 -53q-12 -60 -34 -95.5t-56.5 -54.5t-81.5 -24.5t-109 -5.5h-195l-30 -159h-47zM169 551l-68 -348h187q56 0 96.5 5t68.5 20t44.5 42t25.5 71l13 69q8 43 3 70t-24 43t-52 22t-80 6h-214z" />
    <glyph glyph-name="germandbls" unicode="&#xdf;" horiz-adv-x="543" 
d="M145 42h77q45 0 77.5 13.5t54.5 36t35.5 52t19.5 62.5l5 26q5 27 3 53.5t-16.5 47.5t-44.5 34t-79 13h-44l9 44h34q69 0 112 39.5t56 105.5l6 30q4 22 3 46t-13 43t-37.5 31.5t-70.5 12.5q-23 0 -49 -5.5t-49.5 -21t-42 -43t-27.5 -71.5l-114 -591h-45l115 596
q7 37 23 69.5t42 56.5t63.5 38t87.5 14t83.5 -14t52 -38t23.5 -56t-2 -68l-6 -31q-4 -22 -12.5 -46t-24 -46.5t-39.5 -41.5t-60 -30q39 -8 62.5 -25t35.5 -40t13.5 -51t-4.5 -58l-7 -36q-8 -42 -25 -77t-44.5 -61t-66 -40.5t-87.5 -14.5h-90z" />
    <glyph glyph-name="agrave" unicode="&#xe0;" horiz-adv-x="513" 
d="M336 0l8 68q-17 -11 -41.5 -24.5t-54.5 -25.5t-63.5 -20t-67.5 -8q-70 0 -100 38t-15 119l5 26q8 45 28.5 73.5t51.5 44.5t71.5 21.5t89.5 5.5h140l11 58q6 32 8 58.5t-7.5 45t-34.5 29t-72 10.5q-35 0 -80.5 -7.5t-88.5 -23.5l8 42q45 16 87.5 23t81.5 7q58 0 90 -14.5
t46 -39.5t13 -59t-9 -74l-68 -373h-37zM381 279h-132q-44 0 -78 -4.5t-58.5 -17t-40 -35t-22.5 -57.5l-4 -20q-11 -60 9 -87.5t70 -27.5q30 0 62 7.5t62.5 18.5t56.5 25t44 28zM359 606h-47l-79 134h61z" />
    <glyph glyph-name="aacute" unicode="&#xe1;" horiz-adv-x="514" 
d="M336 0l8 68q-17 -11 -41.5 -24.5t-54.5 -25.5t-63.5 -20t-67.5 -8q-70 0 -100 38t-15 119l5 26q8 45 28.5 73.5t51.5 44.5t71.5 21.5t89.5 5.5h140l11 58q6 32 8 58.5t-7.5 45t-34.5 29t-72 10.5q-35 0 -80.5 -7.5t-88.5 -23.5l8 42q45 16 87.5 23t81.5 7q58 0 90 -14.5
t46 -39.5t13 -59t-9 -74l-68 -373h-37zM381 279h-132q-44 0 -78 -4.5t-58.5 -17t-40 -35t-22.5 -57.5l-4 -20q-11 -60 9 -87.5t70 -27.5q30 0 62 7.5t62.5 18.5t56.5 25t44 28zM388 740h63l-125 -134h-50z" />
    <glyph glyph-name="acircumflex" unicode="&#xe2;" horiz-adv-x="513" 
d="M336 0l8 68q-17 -11 -41.5 -24.5t-54.5 -25.5t-63.5 -20t-67.5 -8q-70 0 -100 38t-15 119l5 26q8 45 28.5 73.5t51.5 44.5t71.5 21.5t89.5 5.5h140l11 58q6 32 8 58.5t-7.5 45t-34.5 29t-72 10.5q-35 0 -80.5 -7.5t-88.5 -23.5l8 42q45 16 87.5 23t81.5 7q58 0 90 -14.5
t46 -39.5t13 -59t-9 -74l-68 -373h-37zM381 279h-132q-44 0 -78 -4.5t-58.5 -17t-40 -35t-22.5 -57.5l-4 -20q-11 -60 9 -87.5t70 -27.5q30 0 62 7.5t62.5 18.5t56.5 25t44 28zM330 754h46l66 -148h-39l-53 110l-97 -110h-45z" />
    <glyph glyph-name="atilde" unicode="&#xe3;" horiz-adv-x="513" 
d="M336 0l8 68q-17 -11 -41.5 -24.5t-54.5 -25.5t-63.5 -20t-67.5 -8q-70 0 -100 38t-15 119l5 26q8 45 28.5 73.5t51.5 44.5t71.5 21.5t89.5 5.5h140l11 58q6 32 8 58.5t-7.5 45t-34.5 29t-72 10.5q-35 0 -80.5 -7.5t-88.5 -23.5l8 42q45 16 87.5 23t81.5 7q58 0 90 -14.5
t46 -39.5t13 -59t-9 -74l-68 -373h-37zM381 279h-132q-44 0 -78 -4.5t-58.5 -17t-40 -35t-22.5 -57.5l-4 -20q-11 -60 9 -87.5t70 -27.5q30 0 62 7.5t62.5 18.5t56.5 25t44 28zM388 618q-23 0 -37.5 12t-26 26t-22.5 26t-26 12t-30.5 -16.5t-24.5 -58.5h-41q11 51 37 83
t64 32q21 0 35 -12t25 -26t22 -26t27 -12q22 0 34.5 16.5t23.5 60.5h39q-5 -23 -12 -44t-18.5 -37.5t-28 -26t-40.5 -9.5z" />
    <glyph glyph-name="adieresis" unicode="&#xe4;" horiz-adv-x="513" 
d="M336 0l8 68q-17 -11 -41.5 -24.5t-54.5 -25.5t-63.5 -20t-67.5 -8q-70 0 -100 38t-15 119l5 26q8 45 28.5 73.5t51.5 44.5t71.5 21.5t89.5 5.5h140l11 58q6 32 8 58.5t-7.5 45t-34.5 29t-72 10.5q-35 0 -80.5 -7.5t-88.5 -23.5l8 42q45 16 87.5 23t81.5 7q58 0 90 -14.5
t46 -39.5t13 -59t-9 -74l-68 -373h-37zM381 279h-132q-44 0 -78 -4.5t-58.5 -17t-40 -35t-22.5 -57.5l-4 -20q-11 -60 9 -87.5t70 -27.5q30 0 62 7.5t62.5 18.5t56.5 25t44 28zM230 717h62l-16 -83h-62zM388 717h62l-16 -83h-62z" />
    <glyph glyph-name="aring" unicode="&#xe5;" horiz-adv-x="513" 
d="M336 0l8 68q-17 -11 -41.5 -24.5t-54.5 -25.5t-63.5 -20t-67.5 -8q-70 0 -100 38t-15 119l5 26q8 45 28.5 73.5t51.5 44.5t71.5 21.5t89.5 5.5h140l11 58q6 32 8 58.5t-7.5 45t-34.5 29t-72 10.5q-35 0 -80.5 -7.5t-88.5 -23.5l8 42q45 16 87.5 23t81.5 7q58 0 90 -14.5
t46 -39.5t13 -59t-9 -74l-68 -373h-37zM381 279h-132q-44 0 -78 -4.5t-58.5 -17t-40 -35t-22.5 -57.5l-4 -20q-11 -60 9 -87.5t70 -27.5q30 0 62 7.5t62.5 18.5t56.5 25t44 28zM324 635q29 0 48.5 21.5t19.5 53.5q0 20 -11 32t-34 12q-29 0 -48.5 -21.5t-19.5 -53.5
q0 -20 11 -32t34 -12zM352 788q35 0 55.5 -21.5t20.5 -52.5q0 -48 -31 -80.5t-79 -32.5q-34 0 -54.5 21.5t-20.5 52.5q0 48 30.5 80.5t78.5 32.5z" />
    <glyph glyph-name="ae" unicode="&#xe6;" horiz-adv-x="868" 
d="M416 271l-9 -46q-12 -59 -5 -96.5t29 -59t58 -30t83 -8.5q29 0 66.5 6.5t74.5 20.5l-8 -40q-34 -14 -72 -21t-68 -7q-75 0 -124 22.5t-69 67.5q-21 -15 -49.5 -31t-61.5 -29t-69.5 -21.5t-75.5 -8.5q-72 0 -100.5 43.5t-11.5 121.5l3 15q9 39 26.5 65.5t46 42.5t69 23
t95.5 7h136l13 65q6 32 8 58.5t-7.5 46t-34.5 30.5t-72 11q-37 0 -78 -7.5t-84 -23.5l8 42q45 16 86 23t79 7q41 0 68 -8t43 -22t23.5 -33t9.5 -42q15 24 37 43t49 33t57.5 21.5t60.5 7.5q98 0 143 -61t23 -178l-10 -50h-386zM362 115q-5 26 -3.5 59t9.5 71l5 24h-136
q-88 0 -133.5 -25t-56.5 -86l-3 -16q-11 -58 9.5 -84.5t70.5 -26.5q36 0 70.5 8t65.5 20.5t57 27.5t45 28zM770 324q8 43 6.5 79t-16 62t-43 40.5t-73.5 14.5q-36 0 -71.5 -13t-65 -38t-51 -63t-31.5 -87l-2 -11h344z" />
    <glyph glyph-name="ccedilla" unicode="&#xe7;" horiz-adv-x="477" 
d="M155 -262q-19 0 -40 1.5t-41 5.5l8 41q14 -2 34 -4t38 -2q32 0 51 5t30 12.5t15 17.5t6 21l2 11q2 12 1.5 22t-9 17t-28 11t-55.5 4h-15l17 92q-91 11 -126.5 72t-14.5 179l15 81q12 69 38 114.5t62 72.5t81.5 37.5t97.5 10.5q40 0 75 -6t58 -16l-7 -39q-22 8 -52.5 14
t-77.5 6q-100 0 -156.5 -49t-75.5 -152l-15 -84q-20 -107 17.5 -155t141.5 -48q30 0 67 5.5t77 20.5l-8 -41q-35 -15 -74.5 -20.5t-74.5 -5.5h-1l-9 -49q65 -4 84.5 -28t11.5 -68l-2 -11q-6 -31 -19 -49.5t-31.5 -29t-43 -14t-52.5 -3.5z" />
    <glyph glyph-name="egrave" unicode="&#xe8;" horiz-adv-x="530" 
d="M78 265l-6 -31q-12 -63 -6.5 -102.5t27.5 -62t60 -30.5t92 -8q29 0 64.5 5.5t71.5 19.5l-8 -40q-33 -14 -73.5 -20t-74.5 -6q-66 0 -109.5 16t-66.5 48t-27.5 78.5t7.5 108.5l11 58q13 72 39 122t61 80.5t78 44.5t91 14t84 -13.5t58 -43t28 -77.5t-6 -117l-8 -44h-387z
M432 313q20 102 -7 154.5t-121 52.5q-38 0 -73 -12t-64.5 -37t-50.5 -64.5t-30 -93.5l-2 -11h346zM358 606h-47l-79 134h61z" />
    <glyph glyph-name="eacute" unicode="&#xe9;" horiz-adv-x="530" 
d="M78 265l-6 -31q-12 -63 -6.5 -102.5t27.5 -62t60 -30.5t92 -8q29 0 64.5 5.5t71.5 19.5l-8 -40q-33 -14 -73.5 -20t-74.5 -6q-66 0 -109.5 16t-66.5 48t-27.5 78.5t7.5 108.5l11 58q13 72 39 122t61 80.5t78 44.5t91 14t84 -13.5t58 -43t28 -77.5t-6 -117l-8 -44h-387z
M432 313q20 102 -7 154.5t-121 52.5q-38 0 -73 -12t-64.5 -37t-50.5 -64.5t-30 -93.5l-2 -11h346zM402 740h63l-125 -134h-50z" />
    <glyph glyph-name="ecircumflex" unicode="&#xea;" horiz-adv-x="530" 
d="M78 265l-6 -31q-12 -63 -6.5 -102.5t27.5 -62t60 -30.5t92 -8q29 0 64.5 5.5t71.5 19.5l-8 -40q-33 -14 -73.5 -20t-74.5 -6q-66 0 -109.5 16t-66.5 48t-27.5 78.5t7.5 108.5l11 58q13 72 39 122t61 80.5t78 44.5t91 14t84 -13.5t58 -43t28 -77.5t-6 -117l-8 -44h-387z
M432 313q20 102 -7 154.5t-121 52.5q-38 0 -73 -12t-64.5 -37t-50.5 -64.5t-30 -93.5l-2 -11h346zM324 754h46l66 -148h-39l-53 110l-97 -110h-45z" />
    <glyph glyph-name="edieresis" unicode="&#xeb;" horiz-adv-x="530" 
d="M78 265l-6 -31q-12 -63 -6.5 -102.5t27.5 -62t60 -30.5t92 -8q29 0 64.5 5.5t71.5 19.5l-8 -40q-33 -14 -73.5 -20t-74.5 -6q-66 0 -109.5 16t-66.5 48t-27.5 78.5t7.5 108.5l11 58q13 72 39 122t61 80.5t78 44.5t91 14t84 -13.5t58 -43t28 -77.5t-6 -117l-8 -44h-387z
M432 313q20 102 -7 154.5t-121 52.5q-38 0 -73 -12t-64.5 -37t-50.5 -64.5t-30 -93.5l-2 -11h346zM234 717h62l-16 -83h-62zM392 717h62l-16 -83h-62z" />
    <glyph glyph-name="igrave" unicode="&#xec;" horiz-adv-x="197" 
d="M5 0l103 546h44l-103 -546h-44zM160 606h-47l-79 134h61z" />
    <glyph glyph-name="iacute" unicode="&#xed;" horiz-adv-x="197" 
d="M5 0l103 546h44l-103 -546h-44zM227 740h63l-125 -134h-50z" />
    <glyph glyph-name="icircumflex" unicode="&#xee;" horiz-adv-x="197" 
d="M5 0l103 546h44l-103 -546h-44zM142 754h46l66 -148h-39l-53 110l-97 -110h-45z" />
    <glyph glyph-name="idieresis" unicode="&#xef;" horiz-adv-x="197" 
d="M5 0l103 546h44l-103 -546h-44zM52 717h62l-16 -83h-62zM210 717h62l-16 -83h-62z" />
    <glyph glyph-name="eth" unicode="&#xf0;" horiz-adv-x="568" 
d="M180 615l149 60q-21 17 -46.5 32.5t-55.5 32.5l23 34q71 -38 122 -82l120 49l6 -35l-98 -40q79 -80 99.5 -177.5t-2.5 -218.5l-6 -32q-23 -121 -92 -184.5t-181 -63.5q-113 0 -163 68t-27 189l8 44q12 60 36.5 106t59.5 77.5t78 47.5t92 16q54 0 93 -14t65 -46
q-16 54 -39.5 95t-61.5 77l-173 -70zM456 288q20 102 -18 155.5t-129 53.5t-149.5 -53.5t-78.5 -155.5l-9 -48q-19 -99 16.5 -154t129.5 -55q95 0 152.5 55t76.5 154z" />
    <glyph glyph-name="ntilde" unicode="&#xf1;" horiz-adv-x="555" 
d="M368 0l71 377q6 29 8 55t-5 45t-27 30t-58 11q-94 0 -225 -76l-83 -442h-44l102 546h37l-6 -62q22 13 48 27t55 24.5t60 17.5t61 7q80 0 110 -41.5t16 -119.5l-75 -399h-45zM391 618q-23 0 -37.5 12t-26 26t-22.5 26t-26 12t-30.5 -16.5t-24.5 -58.5h-41q11 51 37 83
t64 32q21 0 35 -12t25 -26t22 -26t27 -12q22 0 34.5 16.5t23.5 60.5h39q-5 -23 -12 -44t-18.5 -37.5t-28 -26t-40.5 -9.5z" />
    <glyph glyph-name="ograve" unicode="&#xf2;" horiz-adv-x="569" 
d="M490 239q-23 -121 -95.5 -185t-184.5 -64q-111 0 -158 67.5t-24 188.5l13 69q23 121 95 183t183 62q112 0 159.5 -65.5t24.5 -186.5zM459 310q18 102 -17 155.5t-129 53.5q-44 0 -82 -13.5t-68 -40t-50.5 -65.5t-29.5 -90l-12 -70q-18 -98 16 -153.5t127 -55.5
q95 0 154.5 55t77.5 154zM372 606h-47l-79 134h61z" />
    <glyph glyph-name="oacute" unicode="&#xf3;" horiz-adv-x="569" 
d="M490 239q-23 -121 -95.5 -185t-184.5 -64q-111 0 -158 67.5t-24 188.5l13 69q23 121 95 183t183 62q112 0 159.5 -65.5t24.5 -186.5zM459 310q18 102 -17 155.5t-129 53.5q-44 0 -82 -13.5t-68 -40t-50.5 -65.5t-29.5 -90l-12 -70q-18 -98 16 -153.5t127 -55.5
q95 0 154.5 55t77.5 154zM416 740h63l-125 -134h-50z" />
    <glyph glyph-name="ocircumflex" unicode="&#xf4;" horiz-adv-x="569" 
d="M490 239q-23 -121 -95.5 -185t-184.5 -64q-111 0 -158 67.5t-24 188.5l13 69q23 121 95 183t183 62q112 0 159.5 -65.5t24.5 -186.5zM459 310q18 102 -17 155.5t-129 53.5q-44 0 -82 -13.5t-68 -40t-50.5 -65.5t-29.5 -90l-12 -70q-18 -98 16 -153.5t127 -55.5
q95 0 154.5 55t77.5 154zM327 754h46l66 -148h-39l-53 110l-97 -110h-45z" />
    <glyph glyph-name="otilde" unicode="&#xf5;" horiz-adv-x="569" 
d="M490 239q-23 -121 -95.5 -185t-184.5 -64q-111 0 -158 67.5t-24 188.5l13 69q23 121 95 183t183 62q112 0 159.5 -65.5t24.5 -186.5zM459 310q18 102 -17 155.5t-129 53.5q-44 0 -82 -13.5t-68 -40t-50.5 -65.5t-29.5 -90l-12 -70q-18 -98 16 -153.5t127 -55.5
q95 0 154.5 55t77.5 154zM395 618q-23 0 -37.5 12t-26 26t-22.5 26t-26 12t-30.5 -16.5t-24.5 -58.5h-41q11 51 37 83t64 32q21 0 35 -12t25 -26t22 -26t27 -12q22 0 34.5 16.5t23.5 60.5h39q-5 -23 -12 -44t-18.5 -37.5t-28 -26t-40.5 -9.5z" />
    <glyph glyph-name="odieresis" unicode="&#xf6;" horiz-adv-x="569" 
d="M490 239q-23 -121 -95.5 -185t-184.5 -64q-111 0 -158 67.5t-24 188.5l13 69q23 121 95 183t183 62q112 0 159.5 -65.5t24.5 -186.5zM459 310q18 102 -17 155.5t-129 53.5q-44 0 -82 -13.5t-68 -40t-50.5 -65.5t-29.5 -90l-12 -70q-18 -98 16 -153.5t127 -55.5
q95 0 154.5 55t77.5 154zM238 717h62l-16 -83h-62zM396 717h62l-16 -83h-62z" />
    <glyph glyph-name="divide" unicode="&#xf7;" horiz-adv-x="594" 
d="M62 370h473l-9 -46h-473zM304 576h63l-14 -77h-63zM229 196h63l-14 -77h-63z" />
    <glyph glyph-name="oslash" unicode="&#xf8;" horiz-adv-x="571" 
d="M494 239q-23 -121 -95.5 -185t-184.5 -64q-82 0 -129 38l-63 -71h-47l85 96q-52 68 -28 193l13 69q23 121 95 183t183 62q92 0 141 -46l62 70h47l-86 -98q41 -64 20 -178zM75 240q-18 -100 15 -152l344 391q-38 40 -117 40q-44 0 -82 -13.5t-68 -40t-50.5 -65.5
t-29.5 -90zM463 310q15 87 -9 139l-341 -388q37 -30 105 -30q95 0 154.5 55t77.5 154z" />
    <glyph glyph-name="ugrave" unicode="&#xf9;" horiz-adv-x="557" 
d="M148 546l-73 -391q-5 -28 -4.5 -50.5t10 -38.5t29 -25t52.5 -9q51 0 111.5 22.5t112.5 57.5l82 434h44l-102 -546h-38l6 67q-19 -13 -44 -26.5t-53.5 -25t-59.5 -18.5t-61 -7q-84 0 -114.5 40.5t-16.5 118.5l75 397h44zM352 606h-47l-79 134h61z" />
    <glyph glyph-name="uacute" unicode="&#xfa;" horiz-adv-x="557" 
d="M148 546l-73 -391q-5 -28 -4.5 -50.5t10 -38.5t29 -25t52.5 -9q51 0 111.5 22.5t112.5 57.5l82 434h44l-102 -546h-38l6 67q-19 -13 -44 -26.5t-53.5 -25t-59.5 -18.5t-61 -7q-84 0 -114.5 40.5t-16.5 118.5l75 397h44zM392 740h63l-125 -134h-50z" />
    <glyph glyph-name="ucircumflex" unicode="&#xfb;" horiz-adv-x="557" 
d="M148 546l-73 -391q-5 -28 -4.5 -50.5t10 -38.5t29 -25t52.5 -9q51 0 111.5 22.5t112.5 57.5l82 434h44l-102 -546h-38l6 67q-19 -13 -44 -26.5t-53.5 -25t-59.5 -18.5t-61 -7q-84 0 -114.5 40.5t-16.5 118.5l75 397h44zM317 754h46l66 -148h-39l-53 110l-97 -110h-45z
" />
    <glyph glyph-name="udieresis" unicode="&#xfc;" horiz-adv-x="557" 
d="M148 546l-73 -391q-5 -28 -4.5 -50.5t10 -38.5t29 -25t52.5 -9q51 0 111.5 22.5t112.5 57.5l82 434h44l-102 -546h-38l6 67q-19 -13 -44 -26.5t-53.5 -25t-59.5 -18.5t-61 -7q-84 0 -114.5 40.5t-16.5 118.5l75 397h44zM225 717h62l-16 -83h-62zM383 717h62l-16 -83h-62z
" />
    <glyph glyph-name="yacute" unicode="&#xfd;" horiz-adv-x="509" 
d="M368 740h63l-125 -134h-50zM85 -216h-47l125 216l-114 546h47l67 -340l8.5 -42.5t7 -34.5t6.5 -36.5t8 -46.5q13 26 24 46t21 38t20.5 36t22.5 40l194 340h50z" />
    <glyph glyph-name="thorn" unicode="&#xfe;" horiz-adv-x="585" 
d="M68 66q38 -19 87 -28t90 -9q46 0 80.5 10.5t59 33t40 57.5t25.5 85l29 148q9 44 4.5 74t-20 48t-41 26t-58.5 8q-53 0 -108.5 -20.5t-118.5 -57.5zM151 757l50 17l-56 -289q19 11 44 24t55 24.5t64 19t72 7.5q43 0 74.5 -13.5t50.5 -37.5t25 -57.5t-2 -73.5l-35 -176
q-12 -62 -34 -103t-53.5 -65.5t-73 -34.5t-93.5 -10q-42 0 -91.5 10t-87.5 27l-46 -242h-46z" />
    <glyph glyph-name="ydieresis" unicode="&#xff;" horiz-adv-x="513" 
d="M87 -216h-45l125 216l-116 546h46l67 -340q4 -22 7.5 -40t7.5 -37t7.5 -40t8.5 -48q14 26 25 47t21.5 40t21 37.5t22.5 40.5l194 340h48zM196 717h62l-16 -83h-62zM354 717h62l-16 -83h-62z" />
    <glyph glyph-name="Amacron" unicode="&#x100;" horiz-adv-x="644" 
d="M564 0h-48l-47 231h-350l-129 -231h-50l423 750h45zM461 275l-53 270l-27 157q-14 -25 -24.5 -44.5t-20 -37.5t-20 -36.5t-22.5 -40.5l-149 -268h316zM279 910h266l-7 -40h-266z" />
    <glyph glyph-name="amacron" unicode="&#x101;" horiz-adv-x="513" 
d="M336 0l8 68q-17 -11 -41.5 -24.5t-54.5 -25.5t-63.5 -20t-67.5 -8q-70 0 -100 38t-15 119l5 26q8 45 28.5 73.5t51.5 44.5t71.5 21.5t89.5 5.5h140l11 58q6 32 8 58.5t-7.5 45t-34.5 29t-72 10.5q-35 0 -80.5 -7.5t-88.5 -23.5l8 42q45 16 87.5 23t81.5 7q58 0 90 -14.5
t46 -39.5t13 -59t-9 -74l-68 -373h-37zM381 279h-132q-44 0 -78 -4.5t-58.5 -17t-40 -35t-22.5 -57.5l-4 -20q-11 -60 9 -87.5t70 -27.5q30 0 62 7.5t62.5 18.5t56.5 25t44 28zM208 710h266l-7 -40h-266z" />
    <glyph glyph-name="Abreve" unicode="&#x102;" horiz-adv-x="644" 
d="M564 0h-48l-47 231h-350l-129 -231h-50l423 750h45zM461 275l-53 270l-27 157q-14 -25 -24.5 -44.5t-20 -37.5t-20 -36.5t-22.5 -40.5l-149 -268h316zM389 806q-28 0 -48 10.5t-32 29.5t-16 44t0 54h36q-6 -46 8.5 -73t54.5 -27t67 27.5t38 72.5h40q-7 -29 -20 -54.5
t-31.5 -44t-43 -29t-53.5 -10.5z" />
    <glyph glyph-name="abreve" unicode="&#x103;" horiz-adv-x="513" 
d="M336 0l8 68q-17 -11 -41.5 -24.5t-54.5 -25.5t-63.5 -20t-67.5 -8q-70 0 -100 38t-15 119l5 26q8 45 28.5 73.5t51.5 44.5t71.5 21.5t89.5 5.5h140l11 58q6 32 8 58.5t-7.5 45t-34.5 29t-72 10.5q-35 0 -80.5 -7.5t-88.5 -23.5l8 42q45 16 87.5 23t81.5 7q58 0 90 -14.5
t46 -39.5t13 -59t-9 -74l-68 -373h-37zM381 279h-132q-44 0 -78 -4.5t-58.5 -17t-40 -35t-22.5 -57.5l-4 -20q-11 -60 9 -87.5t70 -27.5q30 0 62 7.5t62.5 18.5t56.5 25t44 28zM314 606q-28 0 -48 10.5t-32 29.5t-16 44t0 54h36q-6 -46 8.5 -73t54.5 -27t67 27.5t38 72.5h40
q-7 -29 -20 -54.5t-31.5 -44t-43 -29t-53.5 -10.5z" />
    <glyph glyph-name="Aogonek" unicode="&#x104;" horiz-adv-x="652" 
d="M492 -222q-58 0 -86 24.5t-20 66.5l2 11q4 21 16 41t29 36.5t38 29.5t43 21l-45 223h-350l-129 -231h-50l423 750h45l156 -750q-21 -9 -42 -21.5t-38.5 -27.5t-30 -32.5t-15.5 -36.5l-1 -6q-2 -13 -0.5 -23.5t9.5 -17.5t23 -11t39 -4q14 0 34.5 2.5t29.5 5.5l-7 -39
q-33 -11 -73 -11zM461 275l-53 270l-27 157q-14 -25 -24.5 -44.5t-20 -37.5t-20 -36.5t-22.5 -40.5l-149 -268h316z" />
    <glyph glyph-name="aogonek" unicode="&#x105;" horiz-adv-x="513" 
d="M301 -222q-58 0 -86 24.5t-20 66.5l2 11q8 43 45.5 78t94.5 54l7 56q-17 -11 -41.5 -24.5t-54.5 -25.5t-63.5 -20t-67.5 -8q-70 0 -100 38t-15 119l5 26q8 45 28.5 73.5t51.5 44.5t71.5 21.5t89.5 5.5h140l11 58q6 32 8 58.5t-7.5 45t-34.5 29t-72 10.5q-35 0 -80.5 -7.5
t-88.5 -23.5l8 42q45 16 87.5 23t81.5 7q58 0 90 -14.5t46 -39.5t13 -59t-9 -74l-68 -373q-21 -9 -42 -21.5t-38.5 -27.5t-30 -32.5t-15.5 -36.5l-1 -6q-2 -13 -0.5 -23.5t9.5 -17.5t23 -11t39 -4q14 0 34.5 2.5t29.5 5.5l-7 -39q-33 -11 -73 -11zM381 279h-132
q-44 0 -78 -4.5t-58.5 -17t-40 -35t-22.5 -57.5l-4 -20q-11 -60 9 -87.5t70 -27.5q30 0 62 7.5t62.5 18.5t56.5 25t44 28z" />
    <glyph glyph-name="Cacute" unicode="&#x106;" horiz-adv-x="598" 
d="M596 695q-33 11 -74 16.5t-98 5.5q-134 0 -208 -65t-98 -204l-25 -142q-11 -60 -9 -110t23.5 -86.5t68 -56.5t125.5 -20q42 0 90 6t97 23l-8 -43q-24 -9 -51.5 -14.5t-54 -9t-49 -4.5t-37.5 -1q-85 0 -138.5 23.5t-80.5 66.5t-30.5 104.5t10.5 138.5l25 134
q16 86 46.5 144t75.5 93.5t103.5 50.5t131.5 15q53 0 97 -6t76 -19zM493 940h63l-125 -134h-50z" />
    <glyph glyph-name="cacute" unicode="&#x107;" horiz-adv-x="477" 
d="M448 499q-22 8 -52.5 14t-77.5 6q-100 0 -156.5 -49t-75.5 -152l-15 -84q-20 -107 17.5 -155t141.5 -48q30 0 67 5.5t77 20.5l-8 -41q-35 -15 -74.5 -20.5t-74.5 -5.5q-117 0 -165 61t-24 193l15 81q12 69 38 114.5t62 72.5t81.5 37.5t97.5 10.5q40 0 75 -6t58 -16z
M390 740h63l-125 -134h-50z" />
    <glyph glyph-name="Ccircumflex" unicode="&#x108;" horiz-adv-x="598" 
d="M596 695q-33 11 -74 16.5t-98 5.5q-134 0 -208 -65t-98 -204l-25 -142q-11 -60 -9 -110t23.5 -86.5t68 -56.5t125.5 -20q42 0 90 6t97 23l-8 -43q-24 -9 -51.5 -14.5t-54 -9t-49 -4.5t-37.5 -1q-85 0 -138.5 23.5t-80.5 66.5t-30.5 104.5t10.5 138.5l25 134
q16 86 46.5 144t75.5 93.5t103.5 50.5t131.5 15q53 0 97 -6t76 -19zM425 954h46l66 -148h-39l-53 110l-97 -110h-45z" />
    <glyph glyph-name="ccircumflex" unicode="&#x109;" horiz-adv-x="477" 
d="M448 499q-22 8 -52.5 14t-77.5 6q-100 0 -156.5 -49t-75.5 -152l-15 -84q-20 -107 17.5 -155t141.5 -48q30 0 67 5.5t77 20.5l-8 -41q-35 -15 -74.5 -20.5t-74.5 -5.5q-117 0 -165 61t-24 193l15 81q12 69 38 114.5t62 72.5t81.5 37.5t97.5 10.5q40 0 75 -6t58 -16z
M315 754h46l66 -148h-39l-53 110l-97 -110h-45z" />
    <glyph glyph-name="Cdotaccent" unicode="&#x10a;" horiz-adv-x="598" 
d="M596 695q-33 11 -74 16.5t-98 5.5q-134 0 -208 -65t-98 -204l-25 -142q-11 -60 -9 -110t23.5 -86.5t68 -56.5t125.5 -20q42 0 90 6t97 23l-8 -43q-24 -9 -51.5 -14.5t-54 -9t-49 -4.5t-37.5 -1q-85 0 -138.5 23.5t-80.5 66.5t-30.5 104.5t10.5 138.5l25 134
q16 86 46.5 144t75.5 93.5t103.5 50.5t131.5 15q53 0 97 -6t76 -19zM401 908h61l-13 -71h-61z" />
    <glyph glyph-name="cdotaccent" unicode="&#x10b;" horiz-adv-x="477" 
d="M448 499q-22 8 -52.5 14t-77.5 6q-100 0 -156.5 -49t-75.5 -152l-15 -84q-20 -107 17.5 -155t141.5 -48q30 0 67 5.5t77 20.5l-8 -41q-35 -15 -74.5 -20.5t-74.5 -5.5q-117 0 -165 61t-24 193l15 81q12 69 38 114.5t62 72.5t81.5 37.5t97.5 10.5q40 0 75 -6t58 -16z
M294 708h61l-13 -71h-61z" />
    <glyph glyph-name="Ccaron" unicode="&#x10c;" horiz-adv-x="598" 
d="M596 695q-33 11 -74 16.5t-98 5.5q-134 0 -208 -65t-98 -204l-25 -142q-11 -60 -9 -110t23.5 -86.5t68 -56.5t125.5 -20q42 0 90 6t97 23l-8 -43q-24 -9 -51.5 -14.5t-54 -9t-49 -4.5t-37.5 -1q-85 0 -138.5 23.5t-80.5 66.5t-30.5 104.5t10.5 138.5l25 134
q16 86 46.5 144t75.5 93.5t103.5 50.5t131.5 15q53 0 97 -6t76 -19zM343 944h40l52 -110l97 110h45l-124 -148h-45z" />
    <glyph glyph-name="ccaron" unicode="&#x10d;" horiz-adv-x="477" 
d="M448 499q-22 8 -52.5 14t-77.5 6q-100 0 -156.5 -49t-75.5 -152l-15 -84q-20 -107 17.5 -155t141.5 -48q30 0 67 5.5t77 20.5l-8 -41q-35 -15 -74.5 -20.5t-74.5 -5.5q-117 0 -165 61t-24 193l15 81q12 69 38 114.5t62 72.5t81.5 37.5t97.5 10.5q40 0 75 -6t58 -16z
M233 744h40l52 -110l97 110h45l-124 -148h-45z" />
    <glyph glyph-name="Dcaron" unicode="&#x10e;" horiz-adv-x="681" 
d="M15 0l141 750h222q76 0 132.5 -14t89.5 -49.5t42.5 -96.5t-8.5 -155l-26 -137q-15 -81 -39 -138t-64.5 -92.5t-103 -51.5t-153.5 -16h-233zM194 705l-124 -660h181q81 0 135.5 15t89 46t53.5 78.5t31 111.5l29 154q14 73 9 122t-30.5 78.5t-71.5 42t-114 12.5h-188z
M328 944h40l52 -110l97 110h45l-124 -148h-45z" />
    <glyph glyph-name="dcaron" unicode="&#x10f;" horiz-adv-x="601" 
d="M711 761l-60 -167h-36l47 167h49zM157 -10q-44 0 -73 14.5t-45.5 40.5t-20.5 61t4 76l32 169q11 60 33.5 100t55 64.5t73.5 34.5t89 10q21 0 45.5 -3.5t48 -9t43.5 -13t32 -16.5l45 239l49 17l-146 -774h-38l6 64q-19 -12 -43.5 -25t-54 -24t-63.5 -18t-72 -7zM467 478
q-11 8 -30 15.5t-41.5 13t-46.5 9t-45 3.5q-44 0 -79 -9.5t-60.5 -31.5t-43 -57.5t-26.5 -87.5l-28 -153q-16 -84 13 -117t94 -33q28 0 58 6.5t59.5 17t56 24.5t49.5 29z" />
    <glyph glyph-name="Dcroat" unicode="&#x110;" horiz-adv-x="698" 
d="M26 408h82l65 342h222q76 0 132.5 -14t89.5 -49.5t42.5 -96.5t-8.5 -155l-26 -137q-15 -81 -39 -138t-64.5 -92.5t-103 -51.5t-153.5 -16h-233l68 363h-82zM211 705l-56 -297h246l-8 -45h-247l-59 -318h181q81 0 135.5 15t89 46t53.5 78.5t31 111.5l29 154q14 73 9 122
t-30.5 78.5t-71.5 42t-114 12.5h-188z" />
    <glyph glyph-name="dcroat" unicode="&#x111;" horiz-adv-x="568" 
d="M331 664h170l18 93l49 17l-21 -110h91l-7 -38h-91l-118 -626h-38l6 64q-19 -12 -43.5 -25t-54 -24t-63.5 -18t-72 -7q-44 0 -73 14.5t-45.5 40.5t-20.5 61t4 76l32 169q11 60 33.5 100t55 64.5t73.5 34.5t89 10q21 0 45.5 -3.5t48 -9t43.5 -13t32 -16.5l20 108h-170z
M467 478q-11 8 -30 15.5t-41.5 13t-46.5 9t-45 3.5q-44 0 -79 -9.5t-60.5 -31.5t-43 -57.5t-26.5 -87.5l-28 -153q-16 -84 13 -117t94 -33q28 0 58 6.5t59.5 17t56 24.5t49.5 29z" />
    <glyph glyph-name="Emacron" unicode="&#x112;" horiz-adv-x="573" 
d="M588 750l-9 -45h-385l-55 -292h353l-8 -43h-353l-61 -325h402l-7 -45h-450l141 750h432zM270 910h266l-7 -40h-266z" />
    <glyph glyph-name="emacron" unicode="&#x113;" horiz-adv-x="530" 
d="M78 265l-6 -31q-12 -63 -6.5 -102.5t27.5 -62t60 -30.5t92 -8q29 0 64.5 5.5t71.5 19.5l-8 -40q-33 -14 -73.5 -20t-74.5 -6q-66 0 -109.5 16t-66.5 48t-27.5 78.5t7.5 108.5l11 58q13 72 39 122t61 80.5t78 44.5t91 14t84 -13.5t58 -43t28 -77.5t-6 -117l-8 -44h-387z
M432 313q20 102 -7 154.5t-121 52.5q-38 0 -73 -12t-64.5 -37t-50.5 -64.5t-30 -93.5l-2 -11h346zM204 710h266l-7 -40h-266z" />
    <glyph glyph-name="Ebreve" unicode="&#x114;" horiz-adv-x="573" 
d="M588 750l-9 -45h-385l-55 -292h353l-8 -43h-353l-61 -325h402l-7 -45h-450l141 750h432zM390 806q-28 0 -48 10.5t-32 29.5t-16 44t0 54h36q-6 -46 8.5 -73t54.5 -27t67 27.5t38 72.5h40q-7 -29 -20 -54.5t-31.5 -44t-43 -29t-53.5 -10.5z" />
    <glyph glyph-name="ebreve" unicode="&#x115;" horiz-adv-x="530" 
d="M78 265l-6 -31q-12 -63 -6.5 -102.5t27.5 -62t60 -30.5t92 -8q29 0 64.5 5.5t71.5 19.5l-8 -40q-33 -14 -73.5 -20t-74.5 -6q-66 0 -109.5 16t-66.5 48t-27.5 78.5t7.5 108.5l11 58q13 72 39 122t61 80.5t78 44.5t91 14t84 -13.5t58 -43t28 -77.5t-6 -117l-8 -44h-387z
M432 313q20 102 -7 154.5t-121 52.5q-38 0 -73 -12t-64.5 -37t-50.5 -64.5t-30 -93.5l-2 -11h346zM312 606q-28 0 -48 10.5t-32 29.5t-16 44t0 54h36q-6 -46 8.5 -73t54.5 -27t67 27.5t38 72.5h40q-7 -29 -20 -54.5t-31.5 -44t-43 -29t-53.5 -10.5z" />
    <glyph glyph-name="Edotaccent" unicode="&#x116;" horiz-adv-x="573" 
d="M588 750l-9 -45h-385l-55 -292h353l-8 -43h-353l-61 -325h402l-7 -45h-450l141 750h432zM374 908h61l-13 -71h-61z" />
    <glyph glyph-name="edotaccent" unicode="&#x117;" horiz-adv-x="530" 
d="M78 265l-6 -31q-12 -63 -6.5 -102.5t27.5 -62t60 -30.5t92 -8q29 0 64.5 5.5t71.5 19.5l-8 -40q-33 -14 -73.5 -20t-74.5 -6q-66 0 -109.5 16t-66.5 48t-27.5 78.5t7.5 108.5l11 58q13 72 39 122t61 80.5t78 44.5t91 14t84 -13.5t58 -43t28 -77.5t-6 -117l-8 -44h-387z
M432 313q20 102 -7 154.5t-121 52.5q-38 0 -73 -12t-64.5 -37t-50.5 -64.5t-30 -93.5l-2 -11h346zM311 708h61l-13 -71h-61z" />
    <glyph glyph-name="Eogonek" unicode="&#x118;" horiz-adv-x="573" 
d="M333 -222q-58 0 -86 24.5t-20 66.5l2 11q8 40 41 71.5t75 48.5h-330l141 750h432l-9 -45h-385l-55 -292h353l-8 -43h-353l-61 -325h402l-7 -45h-60q-21 -9 -42 -21.5t-38.5 -27.5t-30 -32.5t-15.5 -36.5l-1 -6q-2 -13 -0.5 -23.5t9.5 -17.5t23 -11t39 -4q14 0 34.5 2.5
t29.5 5.5l-7 -39q-33 -11 -73 -11z" />
    <glyph glyph-name="eogonek" unicode="&#x119;" horiz-adv-x="530" 
d="M249 -222q-58 0 -86 24.5t-20 66.5l2 11q6 35 33 63.5t62 46.5h-15q-66 0 -109.5 16t-66.5 48t-27.5 78.5t7.5 108.5l11 58q13 72 39 122t61 80.5t78 44.5t91 14t84 -13.5t58 -43t28 -77.5t-6 -117l-8 -44h-387l-6 -31q-12 -63 -6.5 -102.5t27.5 -62t60 -30.5t92 -8
q29 0 64.5 5.5t71.5 19.5l-8 -40q-13 -5 -26.5 -9.5t-27.5 -6.5q-20 -9 -41 -21.5t-38.5 -27.5t-29.5 -32.5t-15 -36.5l-1 -6q-2 -13 -0.5 -23.5t9.5 -17.5t23 -11t39 -4q14 0 34.5 2.5t29.5 5.5l-7 -39q-33 -11 -73 -11zM432 313q20 102 -7 154.5t-121 52.5q-38 0 -73 -12
t-64.5 -37t-50.5 -64.5t-30 -93.5l-2 -11h346z" />
    <glyph glyph-name="Ecaron" unicode="&#x11a;" horiz-adv-x="573" 
d="M588 750l-9 -45h-385l-55 -292h353l-8 -43h-353l-61 -325h402l-7 -45h-450l141 750h432zM298 944h40l52 -110l97 110h45l-124 -148h-45z" />
    <glyph glyph-name="ecaron" unicode="&#x11b;" horiz-adv-x="530" 
d="M78 265l-6 -31q-12 -63 -6.5 -102.5t27.5 -62t60 -30.5t92 -8q29 0 64.5 5.5t71.5 19.5l-8 -40q-33 -14 -73.5 -20t-74.5 -6q-66 0 -109.5 16t-66.5 48t-27.5 78.5t7.5 108.5l11 58q13 72 39 122t61 80.5t78 44.5t91 14t84 -13.5t58 -43t28 -77.5t-6 -117l-8 -44h-387z
M432 313q20 102 -7 154.5t-121 52.5q-38 0 -73 -12t-64.5 -37t-50.5 -64.5t-30 -93.5l-2 -11h346zM240 744h40l52 -110l97 110h45l-124 -148h-45z" />
    <glyph glyph-name="Gcircumflex" unicode="&#x11c;" horiz-adv-x="641" 
d="M603 696q-33 11 -75 16t-99 5q-78 0 -132 -19.5t-90 -55.5t-56.5 -86t-31.5 -110l-26 -139q-10 -53 -9 -102t22.5 -87.5t69.5 -61.5t132 -23q51 0 96 6t80 17l54 294h-195l9 43h242l-71 -370q-48 -18 -107.5 -25.5t-113.5 -7.5q-88 0 -143.5 24t-84.5 67t-34.5 102.5
t7.5 131.5l25 131q15 81 42 140.5t70.5 98t105 57t144.5 18.5q57 0 101.5 -6.5t75.5 -17.5zM438 954h46l66 -148h-39l-53 110l-97 -110h-45z" />
    <glyph glyph-name="gcircumflex" unicode="&#x11d;" horiz-adv-x="566" 
d="M386 70q-19 -12 -43.5 -24.5t-53.5 -23.5t-61.5 -18t-68.5 -7q-44 0 -74 14.5t-46.5 40.5t-20.5 61t4 76l31 162q11 60 33.5 100t54.5 64.5t73 34.5t89 10q54 0 98 -15.5t69 -32.5l12 38h39l-110 -591q-17 -92 -71 -137t-166 -45q-13 0 -30 1t-35 3t-35.5 5.5t-29.5 8.5
l7 40q29 -11 63 -14.5t55 -3.5q39 0 71.5 6.5t57.5 22.5t42.5 43.5t25.5 69.5zM461 475q-23 17 -67 30.5t-91 13.5q-44 0 -79 -9.5t-60.5 -31.5t-43 -57.5t-26.5 -87.5l-27 -146q-16 -81 12 -115.5t92 -34.5q28 0 59 7t60 18t56 25t48 29zM327 754h46l66 -148h-39l-53 110
l-97 -110h-45z" />
    <glyph glyph-name="Gbreve" unicode="&#x11e;" horiz-adv-x="641" 
d="M603 696q-33 11 -75 16t-99 5q-78 0 -132 -19.5t-90 -55.5t-56.5 -86t-31.5 -110l-26 -139q-10 -53 -9 -102t22.5 -87.5t69.5 -61.5t132 -23q51 0 96 6t80 17l54 294h-195l9 43h242l-71 -370q-48 -18 -107.5 -25.5t-113.5 -7.5q-88 0 -143.5 24t-84.5 67t-34.5 102.5
t7.5 131.5l25 131q15 81 42 140.5t70.5 98t105 57t144.5 18.5q57 0 101.5 -6.5t75.5 -17.5zM428 806q-28 0 -48 10.5t-32 29.5t-16 44t0 54h36q-6 -46 8.5 -73t54.5 -27t67 27.5t38 72.5h40q-7 -29 -20 -54.5t-31.5 -44t-43 -29t-53.5 -10.5z" />
    <glyph glyph-name="gbreve" unicode="&#x11f;" horiz-adv-x="566" 
d="M386 70q-19 -12 -43.5 -24.5t-53.5 -23.5t-61.5 -18t-68.5 -7q-44 0 -74 14.5t-46.5 40.5t-20.5 61t4 76l31 162q11 60 33.5 100t54.5 64.5t73 34.5t89 10q54 0 98 -15.5t69 -32.5l12 38h39l-110 -591q-17 -92 -71 -137t-166 -45q-13 0 -30 1t-35 3t-35.5 5.5t-29.5 8.5
l7 40q29 -11 63 -14.5t55 -3.5q39 0 71.5 6.5t57.5 22.5t42.5 43.5t25.5 69.5zM461 475q-23 17 -67 30.5t-91 13.5q-44 0 -79 -9.5t-60.5 -31.5t-43 -57.5t-26.5 -87.5l-27 -146q-16 -81 12 -115.5t92 -34.5q28 0 59 7t60 18t56 25t48 29zM328 606q-28 0 -48 10.5t-32 29.5
t-16 44t0 54h36q-6 -46 8.5 -73t54.5 -27t67 27.5t38 72.5h40q-7 -29 -20 -54.5t-31.5 -44t-43 -29t-53.5 -10.5z" />
    <glyph glyph-name="Gdotaccent" unicode="&#x120;" horiz-adv-x="641" 
d="M603 696q-33 11 -75 16t-99 5q-78 0 -132 -19.5t-90 -55.5t-56.5 -86t-31.5 -110l-26 -139q-10 -53 -9 -102t22.5 -87.5t69.5 -61.5t132 -23q51 0 96 6t80 17l54 294h-195l9 43h242l-71 -370q-48 -18 -107.5 -25.5t-113.5 -7.5q-88 0 -143.5 24t-84.5 67t-34.5 102.5
t7.5 131.5l25 131q15 81 42 140.5t70.5 98t105 57t144.5 18.5q57 0 101.5 -6.5t75.5 -17.5zM421 908h61l-13 -71h-61z" />
    <glyph glyph-name="gdotaccent" unicode="&#x121;" horiz-adv-x="566" 
d="M386 70q-19 -12 -43.5 -24.5t-53.5 -23.5t-61.5 -18t-68.5 -7q-44 0 -74 14.5t-46.5 40.5t-20.5 61t4 76l31 162q11 60 33.5 100t54.5 64.5t73 34.5t89 10q54 0 98 -15.5t69 -32.5l12 38h39l-110 -591q-17 -92 -71 -137t-166 -45q-13 0 -30 1t-35 3t-35.5 5.5t-29.5 8.5
l7 40q29 -11 63 -14.5t55 -3.5q39 0 71.5 6.5t57.5 22.5t42.5 43.5t25.5 69.5zM461 475q-23 17 -67 30.5t-91 13.5q-44 0 -79 -9.5t-60.5 -31.5t-43 -57.5t-26.5 -87.5l-27 -146q-16 -81 12 -115.5t92 -34.5q28 0 59 7t60 18t56 25t48 29zM298 708h61l-13 -71h-61z" />
    <glyph glyph-name="uni0122" unicode="&#x122;" horiz-adv-x="641" 
d="M603 696q-33 11 -75 16t-99 5q-78 0 -132 -19.5t-90 -55.5t-56.5 -86t-31.5 -110l-26 -139q-10 -53 -9 -102t22.5 -87.5t69.5 -61.5t132 -23q51 0 96 6t80 17l54 294h-195l9 43h242l-71 -370q-48 -18 -107.5 -25.5t-113.5 -7.5q-88 0 -143.5 24t-84.5 67t-34.5 102.5
t7.5 131.5l25 131q15 81 42 140.5t70.5 98t105 57t144.5 18.5q57 0 101.5 -6.5t75.5 -17.5zM280 -56h57l-92 -177h-39z" />
    <glyph glyph-name="uni0123" unicode="&#x123;" horiz-adv-x="566" 
d="M386 70q-19 -12 -43.5 -24.5t-53.5 -23.5t-61.5 -18t-68.5 -7q-44 0 -74 14.5t-46.5 40.5t-20.5 61t4 76l31 162q11 60 33.5 100t54.5 64.5t73 34.5t89 10q54 0 98 -15.5t69 -32.5l12 38h39l-110 -591q-17 -92 -71 -137t-166 -45q-13 0 -30 1t-35 3t-35.5 5.5t-29.5 8.5
l7 40q29 -11 63 -14.5t55 -3.5q39 0 71.5 6.5t57.5 22.5t42.5 43.5t25.5 69.5zM461 475q-23 17 -67 30.5t-91 13.5q-44 0 -79 -9.5t-60.5 -31.5t-43 -57.5t-26.5 -87.5l-27 -146q-16 -81 12 -115.5t92 -34.5q28 0 59 7t60 18t56 25t48 29zM343 613h-57l92 177h39z" />
    <glyph glyph-name="Hcircumflex" unicode="&#x124;" horiz-adv-x="686" 
d="M531 0h-46l70 373h-423l-70 -373h-47l141 750h47l-63 -333h423l63 333h45zM424 954h46l66 -148h-39l-53 110l-97 -110h-45z" />
    <glyph glyph-name="hcircumflex" unicode="&#x125;" horiz-adv-x="557" 
d="M368 0l71 378q6 29 8 54.5t-5.5 44.5t-27.5 30t-58 11q-51 0 -107.5 -20.5t-115.5 -55.5l-84 -442h-44l142 757l49 17l-55 -288q21 13 47.5 26.5t55 24t58.5 17t59 6.5q81 0 111 -41.5t16 -119.5l-75 -399h-45zM383 954h46l66 -148h-39l-53 110l-97 -110h-45z" />
    <glyph glyph-name="Hbar" unicode="&#x126;" horiz-adv-x="749" 
d="M642 581h92l-9 -45h-92l-103 -536h-46l63 327h-422l-63 -327h-47l103 536h-91l9 45h91l33 169h47l-33 -169h422l33 169h46zM555 371l32 165h-422l-32 -165h422z" />
    <glyph glyph-name="hbar" unicode="&#x127;" horiz-adv-x="552" 
d="M44 664h85l18 93l49 17l-21 -110h176l-7 -38h-177l-29 -154q21 13 47.5 26.5t55 24t58.5 17t59 6.5q81 0 111 -41.5t16 -119.5l-72 -385h-45l68 364q6 29 8 54.5t-5.5 44.5t-27.5 30t-58 11q-51 0 -107.5 -20.5t-115.5 -55.5l-81 -428h-44l117 626h-85z" />
    <glyph glyph-name="Itilde" unicode="&#x128;" horiz-adv-x="218" 
d="M62 0h-47l141 750h47zM245 818q-23 0 -37.5 12t-26 26t-22.5 26t-26 12t-30.5 -16.5t-24.5 -58.5h-41q11 51 37 83t64 32q21 0 35 -12t25 -26t22 -26t27 -12q22 0 34.5 16.5t23.5 60.5h39q-5 -23 -12 -44t-18.5 -37.5t-28 -26t-40.5 -9.5z" />
    <glyph glyph-name="itilde" unicode="&#x129;" horiz-adv-x="221" 
d="M27 0l103 546h44l-103 -546h-44zM224 618q-23 0 -37.5 12t-26 26t-22.5 26t-26 12t-30.5 -16.5t-24.5 -58.5h-41q11 51 37 83t64 32q21 0 35 -12t25 -26t22 -26t27 -12q22 0 34.5 16.5t23.5 60.5h39q-5 -23 -12 -44t-18.5 -37.5t-28 -26t-40.5 -9.5z" />
    <glyph glyph-name="Imacron" unicode="&#x12a;" horiz-adv-x="218" 
d="M62 0h-47l141 750h47zM66 910h266l-7 -40h-266z" />
    <glyph glyph-name="imacron" unicode="&#x12b;" horiz-adv-x="221" 
d="M27 0l103 546h44l-103 -546h-44zM43 710h266l-7 -40h-266z" />
    <glyph glyph-name="Ibreve" unicode="&#x12c;" horiz-adv-x="218" 
d="M62 0h-47l141 750h47zM189 806q-28 0 -48 10.5t-32 29.5t-16 44t0 54h36q-6 -46 8.5 -73t54.5 -27t67 27.5t38 72.5h40q-7 -29 -20 -54.5t-31.5 -44t-43 -29t-53.5 -10.5z" />
    <glyph glyph-name="ibreve" unicode="&#x12d;" horiz-adv-x="211" 
d="M27 0l103 546h44l-103 -546h-44zM158 606q-28 0 -48 10.5t-32 29.5t-16 44t0 54h36q-6 -46 8.5 -73t54.5 -27t67 27.5t38 72.5h40q-7 -29 -20 -54.5t-31.5 -44t-43 -29t-53.5 -10.5z" />
    <glyph glyph-name="Iogonek" unicode="&#x12e;" horiz-adv-x="218" 
d="M-10 -222q-58 0 -86 24.5t-20 66.5l2 11q4 22 16.5 42t30 37t39 29.5t44.5 20.5l140 741h47l-141 -750q-21 -9 -42 -21.5t-38.5 -27.5t-30 -32.5t-15.5 -36.5l-1 -6q-2 -13 -0.5 -23.5t9.5 -17.5t23 -11t39 -4q14 0 34.5 2.5t29.5 5.5l-7 -39q-33 -11 -73 -11z" />
    <glyph glyph-name="iogonek" unicode="&#x12f;" horiz-adv-x="197" 
d="M-23 -222q-58 0 -86 24.5t-20 66.5l2 11q8 42 44 76t90 53l101 537h44l-103 -546q-21 -9 -42 -21.5t-38.5 -27.5t-30 -32.5t-15.5 -36.5l-1 -6q-2 -13 -0.5 -23.5t9.5 -17.5t23 -11t39 -4q14 0 34.5 2.5t29.5 5.5l-7 -39q-33 -11 -73 -11zM175 675h-48l13 70h49z" />
    <glyph glyph-name="Idotaccent" unicode="&#x130;" horiz-adv-x="218" 
d="M62 0h-47l141 750h47zM179 908h61l-13 -71h-61z" />
    <glyph glyph-name="dotlessi" unicode="&#x131;" horiz-adv-x="197" 
d="M5 0l103 546h44l-103 -546h-44z" />
    <glyph glyph-name="IJ" unicode="&#x132;" horiz-adv-x="610" 
d="M62 0h-47l141 750h47zM597 750l-111 -590q-9 -50 -25 -82.5t-39 -52t-55 -27.5t-74 -8q-32 0 -65.5 5t-51.5 10l9 45q29 -8 54 -11.5t57 -3.5q35 0 59.5 7.5t41.5 24t27.5 42.5t17.5 62l109 579h46z" />
    <glyph glyph-name="ij" unicode="&#x133;" horiz-adv-x="413" 
d="M5 0l103 546h44l-103 -546h-44zM175 675h-48l13 70h49zM246 -106q-11 -59 -41 -86t-92 -27q-21 0 -43.5 3t-42.5 8l8 41q19 -5 37 -7.5t47 -2.5q38 0 57 18.5t27 60.5l121 644h45zM391 675h-48l13 70h49z" />
    <glyph glyph-name="Jcircumflex" unicode="&#x134;" horiz-adv-x="396" 
d="M373 750l-111 -590q-9 -50 -25 -82.5t-39 -52t-55 -27.5t-74 -8q-32 0 -65.5 5t-51.5 10l9 45q29 -8 54 -11.5t57 -3.5q35 0 59.5 7.5t41.5 24t27.5 42.5t17.5 62l109 579h46zM361 954h46l66 -148h-39l-53 110l-97 -110h-45z" />
    <glyph glyph-name="jcircumflex" unicode="&#x135;" horiz-adv-x="209" 
d="M34 -106q-11 -59 -41 -86t-92 -27q-21 0 -43.5 3t-42.5 8l8 41q19 -5 37 -7.5t47 -2.5q38 0 57 18.5t27 60.5l121 644h45zM147 754h46l66 -148h-39l-53 110l-97 -110h-45z" />
    <glyph glyph-name="uni0136" unicode="&#x136;" horiz-adv-x="611" 
d="M302 376l222 -376h-54l-210 357h-131l-67 -357h-47l141 750h47l-66 -349h129l310 349h60zM224 -56h57l-92 -177h-39z" />
    <glyph glyph-name="uni0137" unicode="&#x137;" horiz-adv-x="484" 
d="M110 322h88l230 224h61l-258 -246l163 -300h-50l-148 282h-93l-54 -282h-44l142 757l49 17zM158 -56h57l-92 -177h-39z" />
    <glyph glyph-name="kgreenlandic" unicode="&#x138;" horiz-adv-x="487" 
d="M107 303h97l229 243h59l-256 -265l158 -281h-50l-143 263h-102l-50 -263h-44l106 546h44z" />
    <glyph glyph-name="Lacute" unicode="&#x139;" horiz-adv-x="475" 
d="M203 750l-133 -705h385l-8 -45h-432l141 750h47zM277 940h63l-125 -134h-50z" />
    <glyph glyph-name="lacute" unicode="&#x13a;" horiz-adv-x="199" 
d="M5 0l140 757l49 17l-145 -774h-44zM261 940h63l-125 -134h-50z" />
    <glyph glyph-name="uni013B" unicode="&#x13b;" horiz-adv-x="475" 
d="M203 750l-133 -705h385l-8 -45h-432l141 750h47zM220 -56h57l-92 -177h-39z" />
    <glyph glyph-name="uni013C" unicode="&#x13c;" horiz-adv-x="199" 
d="M9 0l140 757l49 17l-145 -774h-44zM-8 -56h57l-92 -177h-39z" />
    <glyph glyph-name="Lcaron" unicode="&#x13d;" horiz-adv-x="475" 
d="M364 751l-59 -177h-35l47 177h47zM203 750l-133 -705h385l-8 -45h-432l141 750h47z" />
    <glyph glyph-name="lcaron" unicode="&#x13e;" horiz-adv-x="237" 
d="M307 761l-56 -167h-34l44 167h46zM5 0l140 757l49 17l-145 -774h-44z" />
    <glyph glyph-name="Ldot" unicode="&#x13f;" horiz-adv-x="495" 
d="M203 750l-133 -705h385l-8 -45h-432l141 750h47zM412 455h63l-14 -77h-63z" />
    <glyph glyph-name="ldot" unicode="&#x140;" horiz-adv-x="254" 
d="M5 0l140 757l49 17l-145 -774h-44zM210 440h63l-14 -77h-63z" />
    <glyph glyph-name="Lslash" unicode="&#x141;" horiz-adv-x="487" 
d="M215 750l-68 -359l272 118l-9 -49l-272 -118l-56 -297h385l-8 -45h-432l60 319l-116 -50l8 49l117 51l72 381h47z" />
    <glyph glyph-name="lslash" unicode="&#x142;" horiz-adv-x="220" 
d="M-33 328l116 80l64 349l49 17l-62 -330l116 81l-10 -53l-116 -81l-73 -391h-44l66 355l-116 -80z" />
    <glyph glyph-name="Nacute" unicode="&#x143;" horiz-adv-x="689" 
d="M533 0h-50l-228 529q-17 39 -32 76.5t-32 82.5l-129 -688h-47l141 750h51l228 -529q10 -23 18 -42t15 -37t14 -37t15 -42l131 687h46zM510 940h63l-125 -134h-50z" />
    <glyph glyph-name="nacute" unicode="&#x144;" horiz-adv-x="555" 
d="M368 0l71 377q6 29 8 55t-5 45t-27 30t-58 11q-94 0 -225 -76l-83 -442h-44l102 546h37l-6 -62q22 13 48 27t55 24.5t60 17.5t61 7q80 0 110 -41.5t16 -119.5l-75 -399h-45zM407 740h63l-125 -134h-50z" />
    <glyph glyph-name="uni0145" unicode="&#x145;" horiz-adv-x="689" 
d="M533 0h-50l-228 529q-17 39 -32 76.5t-32 82.5l-129 -688h-47l141 750h51l228 -529q10 -23 18 -42t15 -37t14 -37t15 -42l131 687h46zM271 -56h57l-92 -177h-39z" />
    <glyph glyph-name="uni0146" unicode="&#x146;" horiz-adv-x="555" 
d="M368 0l71 377q6 29 8 55t-5 45t-27 30t-58 11q-94 0 -225 -76l-83 -442h-44l102 546h37l-6 -62q22 13 48 27t55 24.5t60 17.5t61 7q80 0 110 -41.5t16 -119.5l-75 -399h-45zM190 -56h57l-92 -177h-39z" />
    <glyph glyph-name="Ncaron" unicode="&#x147;" horiz-adv-x="689" 
d="M533 0h-50l-228 529q-17 39 -32 76.5t-32 82.5l-129 -688h-47l141 750h51l228 -529q10 -23 18 -42t15 -37t14 -37t15 -42l131 687h46zM351 944h40l52 -110l97 110h45l-124 -148h-45z" />
    <glyph glyph-name="ncaron" unicode="&#x148;" horiz-adv-x="555" 
d="M368 0l71 377q6 29 8 55t-5 45t-27 30t-58 11q-94 0 -225 -76l-83 -442h-44l102 546h37l-6 -62q22 13 48 27t55 24.5t60 17.5t61 7q80 0 110 -41.5t16 -119.5l-75 -399h-45zM241 744h40l52 -110l97 110h45l-124 -148h-45z" />
    <glyph glyph-name="napostrophe" unicode="&#x149;" horiz-adv-x="577" 
d="M93 700l-70 -194h-33l58 194h45zM390 0l71 377q6 29 8 55t-5 45t-27 30t-58 11q-94 0 -225 -76l-83 -442h-44l102 546h37l-6 -62q22 13 48 27t55 24.5t60 17.5t61 7q80 0 110 -41.5t16 -119.5l-75 -399h-45z" />
    <glyph glyph-name="Eng" unicode="&#x14a;" horiz-adv-x="689" 
d="M523 -52q-9 -50 -23.5 -82.5t-35.5 -52t-50 -27.5t-69 -8q-30 0 -55 4.5t-43 9.5l9 45q28 -8 46.5 -11t45.5 -3q35 0 57 7.5t36.5 24t22.5 42.5t15 62l7 35l-231 535q-17 39 -32 76.5t-32 82.5l-129 -688h-47l141 750h51l228 -529q10 -23 18 -42t15 -37t14 -37t15 -42
l131 687h46z" />
    <glyph glyph-name="eng" unicode="&#x14b;" horiz-adv-x="555" 
d="M393 -106q-11 -59 -41 -86t-92 -27q-21 0 -43.5 3t-42.5 8l8 41q19 -5 37 -7.5t47 -2.5q38 0 57 18.5t27 60.5l89 475q6 29 8 55t-5 45t-27 30t-58 11q-94 0 -225 -76l-83 -442h-44l102 546h37l-6 -62q22 13 48 27t55 24.5t60 17.5t61 7q80 0 110 -41.5t16 -119.5z" />
    <glyph glyph-name="Omacron" unicode="&#x14c;" 
d="M648 313q-31 -162 -121.5 -243.5t-238.5 -81.5q-146 0 -209 87.5t-33 249.5l22 114q31 161 123 242t238 81t208.5 -86t31.5 -249zM623 426q28 147 -22.5 219.5t-177.5 72.5q-125 0 -204 -72.5t-107 -219.5l-19 -102q-28 -148 23.5 -220t176.5 -72q122 0 202 72t108 220z
M323 910h266l-7 -40h-266z" />
    <glyph glyph-name="omacron" unicode="&#x14d;" horiz-adv-x="569" 
d="M490 239q-23 -121 -95.5 -185t-184.5 -64q-111 0 -158 67.5t-24 188.5l13 69q23 121 95 183t183 62q112 0 159.5 -65.5t24.5 -186.5zM459 310q18 102 -17 155.5t-129 53.5q-44 0 -82 -13.5t-68 -40t-50.5 -65.5t-29.5 -90l-12 -70q-18 -98 16 -153.5t127 -55.5
q95 0 154.5 55t77.5 154zM217 710h266l-7 -40h-266z" />
    <glyph glyph-name="Obreve" unicode="&#x14e;" 
d="M648 313q-31 -162 -121.5 -243.5t-238.5 -81.5q-146 0 -209 87.5t-33 249.5l22 114q31 161 123 242t238 81t208.5 -86t31.5 -249zM623 426q28 147 -22.5 219.5t-177.5 72.5q-125 0 -204 -72.5t-107 -219.5l-19 -102q-28 -148 23.5 -220t176.5 -72q122 0 202 72t108 220z
M436 806q-28 0 -48 10.5t-32 29.5t-16 44t0 54h36q-6 -46 8.5 -73t54.5 -27t67 27.5t38 72.5h40q-7 -29 -20 -54.5t-31.5 -44t-43 -29t-53.5 -10.5z" />
    <glyph glyph-name="obreve" unicode="&#x14f;" horiz-adv-x="569" 
d="M490 239q-23 -121 -95.5 -185t-184.5 -64q-111 0 -158 67.5t-24 188.5l13 69q23 121 95 183t183 62q112 0 159.5 -65.5t24.5 -186.5zM459 310q18 102 -17 155.5t-129 53.5q-44 0 -82 -13.5t-68 -40t-50.5 -65.5t-29.5 -90l-12 -70q-18 -98 16 -153.5t127 -55.5
q95 0 154.5 55t77.5 154zM337 606q-28 0 -48 10.5t-32 29.5t-16 44t0 54h36q-6 -46 8.5 -73t54.5 -27t67 27.5t38 72.5h40q-7 -29 -20 -54.5t-31.5 -44t-43 -29t-53.5 -10.5z" />
    <glyph glyph-name="Ohungarumlaut" unicode="&#x150;" 
d="M648 313q-31 -162 -121.5 -243.5t-238.5 -81.5q-146 0 -209 87.5t-33 249.5l22 114q31 161 123 242t238 81t208.5 -86t31.5 -249zM623 426q28 147 -22.5 219.5t-177.5 72.5q-125 0 -204 -72.5t-107 -219.5l-19 -102q-28 -148 23.5 -220t176.5 -72q122 0 202 72t108 220z
M543 940h57l-89 -134h-39zM403 940h60l-90 -134h-40z" />
    <glyph glyph-name="ohungarumlaut" unicode="&#x151;" horiz-adv-x="569" 
d="M490 239q-23 -121 -95.5 -185t-184.5 -64q-111 0 -158 67.5t-24 188.5l13 69q23 121 95 183t183 62q112 0 159.5 -65.5t24.5 -186.5zM459 310q18 102 -17 155.5t-129 53.5q-44 0 -82 -13.5t-68 -40t-50.5 -65.5t-29.5 -90l-12 -70q-18 -98 16 -153.5t127 -55.5
q95 0 154.5 55t77.5 154zM437 740h57l-89 -134h-39zM297 740h60l-90 -134h-40z" />
    <glyph glyph-name="OE" unicode="&#x152;" horiz-adv-x="988" 
d="M1003 750l-9 -45h-386l-57 -292h354l-8 -43h-354l-63 -325h400l-8 -45h-557q-77 0 -135 18.5t-93.5 59.5t-46.5 106.5t8 160.5l12 66q16 81 45 144.5t75.5 106.5t112.5 65.5t158 22.5h552zM434 45l128 660h-120q-79 0 -136 -20t-97 -58t-64.5 -92t-37.5 -122l-15 -82
q-29 -147 28 -216.5t198 -69.5h116z" />
    <glyph glyph-name="oe" unicode="&#x153;" horiz-adv-x="917" 
d="M481 265l-6 -31q-12 -63 -8 -102.5t24.5 -62t57.5 -30.5t91 -8q29 0 60.5 5.5t67.5 19.5l-8 -40q-33 -14 -69.5 -20t-70.5 -6q-91 0 -137 31.5t-57 88.5q-36 -57 -92 -88.5t-131 -31.5q-110 0 -154 68t-21 188l13 69q23 121 91.5 183t179.5 62q76 0 120 -32t58 -92
q38 66 94 95t120 29q45 0 80 -13.5t56 -43t26.5 -77.5t-6.5 -117l-8 -44h-371zM207 31q56 0 95.5 19.5t66 50t41.5 67.5t22 73l13 69q18 101 -14 155t-125 54q-88 0 -147 -53.5t-76 -155.5l-12 -70q-18 -98 12.5 -153.5t123.5 -55.5zM819 313q10 51 9.5 89.5t-14.5 64.5
t-42 39.5t-73 13.5q-82 0 -137.5 -54t-72.5 -158l-1 -6h329z" />
    <glyph glyph-name="Racute" unicode="&#x154;" horiz-adv-x="632" 
d="M156 750h260q50 0 90.5 -7.5t67 -29t36 -60.5t-2.5 -102l-10 -51q-9 -46 -24.5 -76.5t-38.5 -50t-53.5 -29.5t-69.5 -15l118 -329h-49l-113 324h-244l-61 -324h-47zM194 706l-63 -339h187q56 0 96.5 5.5t68.5 20t44.5 41t24.5 68.5l12 62q8 42 3 69.5t-24 43.5
t-52.5 22.5t-81.5 6.5h-215zM474 940h63l-125 -134h-50z" />
    <glyph glyph-name="racute" unicode="&#x155;" horiz-adv-x="361" 
d="M352 514q-62 -5 -120.5 -33.5t-106.5 -76.5l-76 -404h-44l103 546h37l-12 -98q42 44 102 76t126 36zM291 740h63l-125 -134h-50z" />
    <glyph glyph-name="uni0156" unicode="&#x156;" horiz-adv-x="632" 
d="M156 750h260q50 0 90.5 -7.5t67 -29t36 -60.5t-2.5 -102l-10 -51q-9 -46 -24.5 -76.5t-38.5 -50t-53.5 -29.5t-69.5 -15l118 -329h-49l-113 324h-244l-61 -324h-47zM194 706l-63 -339h187q56 0 96.5 5.5t68.5 20t44.5 41t24.5 68.5l12 62q8 42 3 69.5t-24 43.5
t-52.5 22.5t-81.5 6.5h-215zM250 -56h57l-92 -177h-39z" />
    <glyph glyph-name="uni0157" unicode="&#x157;" horiz-adv-x="361" 
d="M352 514q-62 -5 -120.5 -33.5t-106.5 -76.5l-76 -404h-44l103 546h37l-12 -98q42 44 102 76t126 36zM-8 -56h57l-92 -177h-39z" />
    <glyph glyph-name="Rcaron" unicode="&#x158;" horiz-adv-x="632" 
d="M156 750h260q50 0 90.5 -7.5t67 -29t36 -60.5t-2.5 -102l-10 -51q-9 -46 -24.5 -76.5t-38.5 -50t-53.5 -29.5t-69.5 -15l118 -329h-49l-113 324h-244l-61 -324h-47zM194 706l-63 -339h187q56 0 96.5 5.5t68.5 20t44.5 41t24.5 68.5l12 62q8 42 3 69.5t-24 43.5
t-52.5 22.5t-81.5 6.5h-215zM308 944h40l52 -110l97 110h45l-124 -148h-45z" />
    <glyph glyph-name="rcaron" unicode="&#x159;" horiz-adv-x="361" 
d="M352 514q-62 -5 -120.5 -33.5t-106.5 -76.5l-76 -404h-44l103 546h37l-12 -98q42 44 102 76t126 36zM143 744h40l52 -110l97 110h45l-124 -148h-45z" />
    <glyph glyph-name="Sacute" unicode="&#x15a;" horiz-adv-x="553" 
d="M481 202q-9 -46 -26 -84.5t-48.5 -67t-82 -44.5t-125.5 -16q-51 0 -106 8t-108 29l9 47q61 -25 115 -32.5t101 -7.5q95 0 151 38t73 129q7 34 4.5 57t-15.5 38.5t-37.5 26.5t-62.5 22l-114 33q-80 23 -106 70.5t-10 124.5q10 52 30 87.5t52.5 57.5t78.5 32t106 10
q99 0 173 -23l-8 -40q-38 11 -82.5 15.5t-83.5 4.5q-49 0 -86.5 -6.5t-64.5 -24t-45 -47t-27 -75.5q-11 -59 9.5 -92.5t85.5 -52.5l111 -32q47 -14 77.5 -30t46.5 -37t19 -50t-4 -68zM433 940h63l-125 -134h-50z" />
    <glyph glyph-name="sacute" unicode="&#x15b;" horiz-adv-x="449" 
d="M367 144q-7 -34 -20.5 -62.5t-39 -48.5t-64.5 -31.5t-96 -11.5q-15 0 -35.5 1.5t-43 5t-45 9t-41.5 14.5l8 43q47 -19 88 -25.5t74 -6.5q44 0 74.5 8.5t50 24t30 36.5t15.5 45q4 21 4.5 37.5t-9 30t-32 25t-65.5 22.5l-47 12q-41 10 -66 24.5t-37 33.5t-13.5 42t3.5 52
q7 38 25.5 64t45.5 42t61.5 23t75.5 7q40 0 76.5 -5.5t61.5 -15.5l-7 -38q-32 9 -63 14t-71 5q-75 0 -113.5 -25.5t-47.5 -74.5q-4 -21 -4.5 -37t8.5 -29.5t30 -24.5t59 -21l47 -12q45 -11 71.5 -25t40 -32t15.5 -41.5t-4 -53.5zM341 740h63l-125 -134h-50z" />
    <glyph glyph-name="Scircumflex" unicode="&#x15c;" horiz-adv-x="553" 
d="M481 202q-9 -46 -26 -84.5t-48.5 -67t-82 -44.5t-125.5 -16q-51 0 -106 8t-108 29l9 47q61 -25 115 -32.5t101 -7.5q95 0 151 38t73 129q7 34 4.5 57t-15.5 38.5t-37.5 26.5t-62.5 22l-114 33q-80 23 -106 70.5t-10 124.5q10 52 30 87.5t52.5 57.5t78.5 32t106 10
q99 0 173 -23l-8 -40q-38 11 -82.5 15.5t-83.5 4.5q-49 0 -86.5 -6.5t-64.5 -24t-45 -47t-27 -75.5q-11 -59 9.5 -92.5t85.5 -52.5l111 -32q47 -14 77.5 -30t46.5 -37t19 -50t-4 -68zM363 954h46l66 -148h-39l-53 110l-97 -110h-45z" />
    <glyph glyph-name="scircumflex" unicode="&#x15d;" horiz-adv-x="449" 
d="M367 144q-7 -34 -20.5 -62.5t-39 -48.5t-64.5 -31.5t-96 -11.5q-15 0 -35.5 1.5t-43 5t-45 9t-41.5 14.5l8 43q47 -19 88 -25.5t74 -6.5q44 0 74.5 8.5t50 24t30 36.5t15.5 45q4 21 4.5 37.5t-9 30t-32 25t-65.5 22.5l-47 12q-41 10 -66 24.5t-37 33.5t-13.5 42t3.5 52
q7 38 25.5 64t45.5 42t61.5 23t75.5 7q40 0 76.5 -5.5t61.5 -15.5l-7 -38q-32 9 -63 14t-71 5q-75 0 -113.5 -25.5t-47.5 -74.5q-4 -21 -4.5 -37t8.5 -29.5t30 -24.5t59 -21l47 -12q45 -11 71.5 -25t40 -32t15.5 -41.5t-4 -53.5zM272 754h46l66 -148h-39l-53 110l-97 -110
h-45z" />
    <glyph glyph-name="Scedilla" unicode="&#x15e;" horiz-adv-x="553" 
d="M171 -262q-19 0 -40 1.5t-41 5.5l8 41q14 -2 34 -4t38 -2q32 0 51 5t30 12.5t15 17.5t6 21l2 11q2 12 1.5 22t-9 17t-28 11t-55.5 4h-15l17 89q-49 1 -100 9t-100 28l9 47q61 -25 115 -32.5t101 -7.5q95 0 151 38t73 129q7 34 4.5 57t-15.5 38.5t-37.5 26.5t-62.5 22
l-114 33q-80 23 -106 70.5t-10 124.5q10 52 30 87.5t52.5 57.5t78.5 32t106 10q99 0 173 -23l-8 -40q-38 11 -82.5 15.5t-83.5 4.5q-49 0 -86.5 -6.5t-64.5 -24t-45 -47t-27 -75.5q-11 -59 9.5 -92.5t85.5 -52.5l111 -32q47 -14 77.5 -30t46.5 -37t19 -50t-4 -68
q-9 -43 -24.5 -80t-43.5 -65t-72 -45.5t-109 -20.5l-9 -50q65 -4 84.5 -28t11.5 -68l-2 -11q-6 -31 -19 -49.5t-31.5 -29t-43 -14t-52.5 -3.5z" />
    <glyph glyph-name="scedilla" unicode="&#x15f;" horiz-adv-x="449" 
d="M117 -262q-19 0 -40 1.5t-41 5.5l8 41q14 -2 34 -4t38 -2q32 0 51 5t30 12.5t15 17.5t6 21l2 11q2 12 1.5 22t-9 17t-28 11t-55.5 4h-15l17 89q-31 2 -73.5 8.5t-75.5 21.5l8 43q47 -19 88 -25.5t74 -6.5q44 0 74.5 8.5t50 24t30 36.5t15.5 45q4 21 4.5 37.5t-9 30
t-32 25t-65.5 22.5l-47 12q-41 10 -66 24.5t-37 33.5t-13.5 42t3.5 52q7 38 25.5 64t45.5 42t61.5 23t75.5 7q40 0 76.5 -5.5t61.5 -15.5l-7 -38q-32 9 -63 14t-71 5q-75 0 -113.5 -25.5t-47.5 -74.5q-4 -21 -4.5 -37t8.5 -29.5t30 -24.5t59 -21l47 -12q45 -11 71.5 -25
t40 -32t15.5 -41.5t-4 -53.5q-6 -32 -18.5 -58.5t-34.5 -46.5t-55 -32.5t-81 -15.5l-9 -50q65 -4 84.5 -28t11.5 -68l-2 -11q-6 -31 -19 -49.5t-31.5 -29t-43 -14t-52.5 -3.5z" />
    <glyph glyph-name="Scaron" unicode="&#x160;" horiz-adv-x="553" 
d="M481 202q-9 -46 -26 -84.5t-48.5 -67t-82 -44.5t-125.5 -16q-51 0 -106 8t-108 29l9 47q61 -25 115 -32.5t101 -7.5q95 0 151 38t73 129q7 34 4.5 57t-15.5 38.5t-37.5 26.5t-62.5 22l-114 33q-80 23 -106 70.5t-10 124.5q10 52 30 87.5t52.5 57.5t78.5 32t106 10
q99 0 173 -23l-8 -40q-38 11 -82.5 15.5t-83.5 4.5q-49 0 -86.5 -6.5t-64.5 -24t-45 -47t-27 -75.5q-11 -59 9.5 -92.5t85.5 -52.5l111 -32q47 -14 77.5 -30t46.5 -37t19 -50t-4 -68zM282 944h40l52 -110l97 110h45l-124 -148h-45z" />
    <glyph glyph-name="scaron" unicode="&#x161;" horiz-adv-x="461" 
d="M367 144q-7 -34 -20.5 -62.5t-39 -48.5t-64.5 -31.5t-96 -11.5q-15 0 -35.5 1.5t-43 5t-45 9t-41.5 14.5l8 43q47 -19 88 -25.5t74 -6.5q44 0 74.5 8.5t50 24t30 36.5t15.5 45q4 21 4.5 37.5t-9 30t-32 25t-65.5 22.5l-47 12q-41 10 -66 24.5t-37 33.5t-13.5 42t3.5 52
q7 38 25.5 64t45.5 42t61.5 23t75.5 7q40 0 76.5 -5.5t61.5 -15.5l-7 -38q-32 9 -63 14t-71 5q-75 0 -113.5 -25.5t-47.5 -74.5q-4 -21 -4.5 -37t8.5 -29.5t30 -24.5t59 -21l47 -12q45 -11 71.5 -25t40 -32t15.5 -41.5t-4 -53.5zM184 744h40l52 -110l97 110h45l-124 -148
h-45z" />
    <glyph glyph-name="uni0162" unicode="&#x162;" horiz-adv-x="595" 
d="M186 -262q-19 0 -40 1.5t-41 5.5l8 41q14 -2 34 -4t38 -2q32 0 51 5t30 12.5t15 17.5t6 21l2 11q2 12 1.5 22t-9 17t-28 11t-55.5 4h-15l20 107l3 13l129 684h-255l9 45h546l-9 -45h-244l-129 -684l-4 -21l-11 -59q65 -4 84.5 -28t11.5 -68l-2 -11q-6 -31 -19 -49.5
t-31.5 -29t-43 -14t-52.5 -3.5z" />
    <glyph glyph-name="uni0163" unicode="&#x163;" horiz-adv-x="359" 
d="M69 -262q-19 0 -40 1.5t-41 5.5l8 41q14 -2 34 -4t38 -2q32 0 51 5t30 12.5t15 17.5t6 21l2 11q2 12 1.5 22t-9 17t-28 11t-55.5 4h-15l21 110q-37 30 -22 111l72 383h-97l8 41h97l24 132l48 18l-28 -150h177l-7 -41h-178l-69 -366q-6 -33 -6 -54t8 -33t23 -16.5t39 -4.5
q23 0 49.5 5t49.5 17l-8 -41q-18 -11 -45 -16.5t-56 -5.5q-20 0 -36 3l-9 -52q65 -4 84.5 -28t11.5 -68l-2 -11q-6 -31 -19 -49.5t-31.5 -29t-43 -14t-52.5 -3.5z" />
    <glyph glyph-name="Tcaron" unicode="&#x164;" horiz-adv-x="595" 
d="M89 750h546l-9 -45h-244l-133 -705h-47l133 705h-255zM290 944h40l52 -110l97 110h45l-124 -148h-45z" />
    <glyph glyph-name="tcaron" unicode="&#x165;" horiz-adv-x="366" 
d="M358 761l-60 -167h-33l48 167h45zM181 505l-69 -366q-6 -33 -6 -54t8 -33t23 -16.5t39 -4.5q23 0 49.5 5t49.5 17l-8 -41q-18 -11 -45 -16.5t-56 -5.5q-66 0 -90 32t-11 100l72 383h-97l8 41h97l24 132l48 18l-28 -150h177l-7 -41h-178z" />
    <glyph glyph-name="Tbar" unicode="&#x166;" horiz-adv-x="604" 
d="M98 750h546l-9 -45h-244l-56 -294h206l-9 -45h-205l-69 -366h-47l69 366h-200l9 45h199l56 294h-255z" />
    <glyph glyph-name="tbar" unicode="&#x167;" horiz-adv-x="359" 
d="M181 505l-32 -167h175l-8 -38h-174l-30 -161q-6 -33 -6 -54t8 -33t23 -16.5t39 -4.5q23 0 49.5 5t49.5 17l-8 -41q-18 -11 -45 -16.5t-56 -5.5q-66 0 -90 32t-11 100l33 178h-97l8 38h96l32 167h-97l8 41h97l24 132l48 18l-28 -150h177l-7 -41h-178z" />
    <glyph glyph-name="Utilde" unicode="&#x168;" horiz-adv-x="706" 
d="M198 750l-88 -469q-25 -131 17.5 -190t159.5 -59q118 0 184 61t92 195l87 462h46l-89 -473q-14 -74 -39 -128.5t-63.5 -90.5t-92.5 -53.5t-125 -17.5q-143 0 -198 71.5t-27 218.5l89 473h47zM497 818q-23 0 -37.5 12t-26 26t-22.5 26t-26 12t-30.5 -16.5t-24.5 -58.5h-41
q11 51 37 83t64 32q21 0 35 -12t25 -26t22 -26t27 -12q22 0 34.5 16.5t23.5 60.5h39q-5 -23 -12 -44t-18.5 -37.5t-28 -26t-40.5 -9.5z" />
    <glyph glyph-name="utilde" unicode="&#x169;" horiz-adv-x="557" 
d="M148 546l-73 -391q-5 -28 -4.5 -50.5t10 -38.5t29 -25t52.5 -9q51 0 111.5 22.5t112.5 57.5l82 434h44l-102 -546h-38l6 67q-19 -13 -44 -26.5t-53.5 -25t-59.5 -18.5t-61 -7q-84 0 -114.5 40.5t-16.5 118.5l75 397h44zM380 618q-23 0 -37.5 12t-26 26t-22.5 26t-26 12
t-30.5 -16.5t-24.5 -58.5h-41q11 51 37 83t64 32q21 0 35 -12t25 -26t22 -26t27 -12q22 0 34.5 16.5t23.5 60.5h39q-5 -23 -12 -44t-18.5 -37.5t-28 -26t-40.5 -9.5z" />
    <glyph glyph-name="Umacron" unicode="&#x16a;" horiz-adv-x="706" 
d="M198 750l-88 -469q-25 -131 17.5 -190t159.5 -59q118 0 184 61t92 195l87 462h46l-89 -473q-14 -74 -39 -128.5t-63.5 -90.5t-92.5 -53.5t-125 -17.5q-143 0 -198 71.5t-27 218.5l89 473h47zM318 910h266l-7 -40h-266z" />
    <glyph glyph-name="umacron" unicode="&#x16b;" horiz-adv-x="557" 
d="M148 546l-73 -391q-5 -28 -4.5 -50.5t10 -38.5t29 -25t52.5 -9q51 0 111.5 22.5t112.5 57.5l82 434h44l-102 -546h-38l6 67q-19 -13 -44 -26.5t-53.5 -25t-59.5 -18.5t-61 -7q-84 0 -114.5 40.5t-16.5 118.5l75 397h44zM201 710h266l-7 -40h-266z" />
    <glyph glyph-name="Ubreve" unicode="&#x16c;" horiz-adv-x="706" 
d="M198 750l-88 -469q-25 -131 17.5 -190t159.5 -59q118 0 184 61t92 195l87 462h46l-89 -473q-14 -74 -39 -128.5t-63.5 -90.5t-92.5 -53.5t-125 -17.5q-143 0 -198 71.5t-27 218.5l89 473h47zM431 806q-28 0 -48 10.5t-32 29.5t-16 44t0 54h36q-6 -46 8.5 -73t54.5 -27
t67 27.5t38 72.5h40q-7 -29 -20 -54.5t-31.5 -44t-43 -29t-53.5 -10.5z" />
    <glyph glyph-name="ubreve" unicode="&#x16d;" horiz-adv-x="557" 
d="M148 546l-73 -391q-5 -28 -4.5 -50.5t10 -38.5t29 -25t52.5 -9q51 0 111.5 22.5t112.5 57.5l82 434h44l-102 -546h-38l6 67q-19 -13 -44 -26.5t-53.5 -25t-59.5 -18.5t-61 -7q-84 0 -114.5 40.5t-16.5 118.5l75 397h44zM322 606q-28 0 -48 10.5t-32 29.5t-16 44t0 54h36
q-6 -46 8.5 -73t54.5 -27t67 27.5t38 72.5h40q-7 -29 -20 -54.5t-31.5 -44t-43 -29t-53.5 -10.5z" />
    <glyph glyph-name="Uring" unicode="&#x16e;" horiz-adv-x="706" 
d="M198 750l-88 -469q-25 -131 17.5 -190t159.5 -59q118 0 184 61t92 195l87 462h46l-89 -473q-14 -74 -39 -128.5t-63.5 -90.5t-92.5 -53.5t-125 -17.5q-143 0 -198 71.5t-27 218.5l89 473h47zM443 835q29 0 48.5 21.5t19.5 53.5q0 20 -11 32t-34 12q-29 0 -48.5 -21.5
t-19.5 -53.5q0 -20 11 -32t34 -12zM471 988q35 0 55.5 -21.5t20.5 -52.5q0 -48 -31 -80.5t-79 -32.5q-34 0 -54.5 21.5t-20.5 52.5q0 48 30.5 80.5t78.5 32.5z" />
    <glyph glyph-name="uring" unicode="&#x16f;" horiz-adv-x="557" 
d="M148 546l-73 -391q-5 -28 -4.5 -50.5t10 -38.5t29 -25t52.5 -9q51 0 111.5 22.5t112.5 57.5l82 434h44l-102 -546h-38l6 67q-19 -13 -44 -26.5t-53.5 -25t-59.5 -18.5t-61 -7q-84 0 -114.5 40.5t-16.5 118.5l75 397h44zM319 635q29 0 48.5 21.5t19.5 53.5q0 20 -11 32
t-34 12q-29 0 -48.5 -21.5t-19.5 -53.5q0 -20 11 -32t34 -12zM347 788q35 0 55.5 -21.5t20.5 -52.5q0 -48 -31 -80.5t-79 -32.5q-34 0 -54.5 21.5t-20.5 52.5q0 48 30.5 80.5t78.5 32.5z" />
    <glyph glyph-name="Uhungarumlaut" unicode="&#x170;" horiz-adv-x="706" 
d="M198 750l-88 -469q-25 -131 17.5 -190t159.5 -59q118 0 184 61t92 195l87 462h46l-89 -473q-14 -74 -39 -128.5t-63.5 -90.5t-92.5 -53.5t-125 -17.5q-143 0 -198 71.5t-27 218.5l89 473h47zM528 940h57l-89 -134h-39zM388 940h60l-90 -134h-40z" />
    <glyph glyph-name="uhungarumlaut" unicode="&#x171;" horiz-adv-x="557" 
d="M148 546l-73 -391q-5 -28 -4.5 -50.5t10 -38.5t29 -25t52.5 -9q51 0 111.5 22.5t112.5 57.5l82 434h44l-102 -546h-38l6 67q-19 -13 -44 -26.5t-53.5 -25t-59.5 -18.5t-61 -7q-84 0 -114.5 40.5t-16.5 118.5l75 397h44zM427 740h57l-89 -134h-39zM287 740h60l-90 -134
h-40z" />
    <glyph glyph-name="Uogonek" unicode="&#x172;" horiz-adv-x="706" 
d="M323 -222q-58 0 -86 24.5t-20 66.5l2 11q6 34 31.5 61.5t58.5 46.5q-5 -1 -11 -1h-11q-143 0 -198 71.5t-27 218.5l89 473h47l-88 -469q-25 -131 17.5 -190t159.5 -59q118 0 184 61t92 195l87 462h46l-89 -473q-22 -117 -72 -185.5t-140 -91.5q-21 -9 -42 -21.5
t-38.5 -27.5t-30 -32.5t-15.5 -36.5l-1 -6q-2 -13 -0.5 -23.5t9.5 -17.5t23 -11t39 -4q14 0 34.5 2.5t29.5 5.5l-7 -39q-33 -11 -73 -11z" />
    <glyph glyph-name="uogonek" unicode="&#x173;" horiz-adv-x="557" 
d="M338 -222q-58 0 -86 24.5t-20 66.5l2 11q8 42 45 77.5t94 53.5l5 56q-19 -13 -44 -26.5t-53.5 -25t-59.5 -18.5t-61 -7q-84 0 -114.5 40.5t-16.5 118.5l75 397h44l-73 -391q-5 -28 -4.5 -50.5t10 -38.5t29 -25t52.5 -9q51 0 111.5 22.5t112.5 57.5l82 434h44l-102 -546
q-21 -9 -42 -21.5t-38.5 -27.5t-30 -32.5t-15.5 -36.5l-1 -6q-2 -13 -0.5 -23.5t9.5 -17.5t23 -11t39 -4q14 0 34.5 2.5t29.5 5.5l-7 -39q-33 -11 -73 -11z" />
    <glyph glyph-name="Wcircumflex" unicode="&#x174;" horiz-adv-x="915" 
d="M542 954h46l66 -148h-39l-53 110l-97 -110h-45zM533 488q-4 47 -7.5 93t-5.5 107q-26 -62 -45.5 -107.5t-41.5 -92.5l-224 -488h-57l-66 750h47l43 -513q3 -34 7 -78t6 -108q24 64 44 108t37 78l236 513h47l44 -511q2 -34 5 -79.5t3 -104.5q20 51 41 97.5t39 84.5
l238 513h50l-353 -750h-47z" />
    <glyph glyph-name="wcircumflex" unicode="&#x175;" horiz-adv-x="744" 
d="M89 546l45 -356q5 -36 8 -66t6 -73h1q10 24 18 42t14.5 33.5t13.5 30.5t16 33l173 356h39l37 -356q4 -35 7 -66t5 -73h1q19 41 32 72t31 67l176 356h42l-269 -546h-42l-36 353q-5 42 -8.5 74.5t-3.5 65.5h-1q-12 -33 -26 -62.5t-34 -71.5l-171 -359h-44l-74 546h44z
M416 754h46l66 -148h-39l-53 110l-97 -110h-45z" />
    <glyph glyph-name="Ycircumflex" unicode="&#x176;" horiz-adv-x="571" 
d="M293 310l-58 -310h-46l57 308l-172 442h47l107 -284q6 -16 11 -29.5t9.5 -27t10 -29t12.5 -36.5q12 18 22.5 33t20 29t20 28t23.5 32l206 284h56zM364 954h46l66 -148h-39l-53 110l-97 -110h-45z" />
    <glyph glyph-name="ycircumflex" unicode="&#x177;" horiz-adv-x="509" 
d="M298 754h46l66 -148h-39l-53 110l-97 -110h-45zM85 -216h-47l125 216l-114 546h47l67 -340l8.5 -42.5t7 -34.5t6.5 -36.5t8 -46.5q13 26 24 46t21 38t20.5 36t22.5 40l194 340h50z" />
    <glyph glyph-name="Ydieresis" unicode="&#x178;" horiz-adv-x="571" 
d="M293 310l-58 -310h-46l57 308l-172 442h47l107 -284q6 -16 11 -29.5t9.5 -27t10 -29t12.5 -36.5q12 18 22.5 33t20 29t20 28t23.5 32l206 284h56zM273 917h62l-16 -83h-62zM431 917h62l-16 -83h-62z" />
    <glyph glyph-name="Zacute" unicode="&#x179;" horiz-adv-x="605" 
d="M148 158l-102 -114h464l-8 -44h-522l6 37l476 555l102 114h-437l8 44h496l-7 -37zM448 940h63l-125 -134h-50z" />
    <glyph glyph-name="zacute" unicode="&#x17a;" horiz-adv-x="460" 
d="M120 148q-14 -15 -25.5 -28l-23 -26t-23.5 -26t-27 -29h352l-6 -39h-407l5 32l351 390q24 26 42.5 46.5t37.5 38.5h-330l8 39h382l-6 -32zM335 740h63l-125 -134h-50z" />
    <glyph glyph-name="Zdotaccent" unicode="&#x17b;" horiz-adv-x="605" 
d="M148 158l-102 -114h464l-8 -44h-522l6 37l476 555l102 114h-437l8 44h496l-7 -37zM374 908h61l-13 -71h-61z" />
    <glyph glyph-name="zdotaccent" unicode="&#x17c;" horiz-adv-x="460" 
d="M120 148q-14 -15 -25.5 -28l-23 -26t-23.5 -26t-27 -29h352l-6 -39h-407l5 32l351 390q24 26 42.5 46.5t37.5 38.5h-330l8 39h382l-6 -32zM259 708h61l-13 -71h-61z" />
    <glyph glyph-name="Zcaron" unicode="&#x17d;" horiz-adv-x="605" 
d="M148 158l-102 -114h464l-8 -44h-522l6 37l476 555l102 114h-437l8 44h496l-7 -37zM303 944h40l52 -110l97 110h45l-124 -148h-45z" />
    <glyph glyph-name="zcaron" unicode="&#x17e;" horiz-adv-x="460" 
d="M120 148q-14 -15 -25.5 -28l-23 -26t-23.5 -26t-27 -29h352l-6 -39h-407l5 32l351 390q24 26 42.5 46.5t37.5 38.5h-330l8 39h382l-6 -32zM188 744h40l52 -110l97 110h45l-124 -148h-45z" />
    <glyph glyph-name="longs" unicode="&#x17f;" horiz-adv-x="294" 
d="M49 0h-44l126 650q13 70 52 97t95 27q29 0 52.5 -3.5t37.5 -7.5l-7 -36q-16 3 -33.5 5.5t-35.5 2.5q-23 0 -42 -3t-34.5 -13t-26.5 -29t-17 -52z" />
    <glyph glyph-name="uni0180" unicode="&#x180;" horiz-adv-x="548" 
d="M46 664h83l18 93l47 17l-21 -110h177l-7 -38h-178l-29 -155q17 11 40 24t50 24.5t59 19t67 7.5q40 0 69.5 -13.5t47.5 -37.5t23.5 -57.5t-1.5 -73.5l-30 -162q-12 -63 -32.5 -104t-48.5 -65.5t-63.5 -34t-77.5 -9.5q-47 0 -94 16t-93 54l-17 -59h-30l117 626h-83zM66 94
q18 -17 39.5 -29t44 -20t44.5 -12t41 -4q78 0 122 42.5t63 143.5l25 134q8 44 4 74t-18.5 48t-39 26t-55.5 8q-50 0 -99.5 -20.5t-108.5 -57.5z" />
    <glyph glyph-name="uni0181" unicode="&#x181;" horiz-adv-x="677" 
d="M200 706h-17q-40 0 -66 -9.5t-41 -29t-21 -50t-6 -73.5h-43q-1 46 7 84t29 65t55.5 42t86.5 15h239q52 0 94.5 -6.5t70 -24t38.5 -49.5t1 -83l-10 -54q-5 -25 -14.5 -48.5t-27 -42.5t-44.5 -33t-68 -20q78 -8 109 -47t19 -97l-12 -70q-10 -54 -29.5 -88t-53 -53.5
t-83 -26.5t-118.5 -7h-227zM185 369l-62 -325h179q55 0 95 5.5t67.5 20.5t43.5 42t24 71l11 59q5 30 0.5 53.5t-24 40t-56.5 25t-96 8.5h-182zM248 706l-56 -296h182q78 0 130 27t65 93l12 61q6 33 1.5 55.5t-24 35.5t-55 18.5t-89.5 5.5h-166z" />
    <glyph glyph-name="uni0182" unicode="&#x182;" horiz-adv-x="622" 
d="M157 750h425l-8 -44h-378l-54 -285h193q62 0 107 -8t72 -29.5t35.5 -59.5t-3.5 -98l-7 -38q-12 -65 -35.5 -102t-57 -56.5t-77 -24.5t-95.5 -5h-259zM284 44q47 0 82 6t60.5 21.5t41.5 43t24 70.5l10 54q9 43 2.5 70t-28 42t-60 20.5t-94.5 5.5h-188l-64 -333h214z" />
    <glyph glyph-name="uni0183" unicode="&#x183;" horiz-adv-x="551" 
d="M348 522q40 0 69.5 -13.5t47.5 -37.5t23.5 -57.5t-1.5 -73.5l-26 -138q-12 -63 -32.5 -104t-48.5 -65.5t-63.5 -34t-77.5 -9.5q-47 0 -94 16t-93 54l-17 -59h-30l143 759h383l-7 -38h-340l-52 -274q17 11 40 24t50 24.5t59 19t67 7.5zM66 94q18 -17 39.5 -29t44 -20
t44.5 -12t41 -4q78 0 121.5 42.5t63.5 143.5l21 110q8 44 4 74t-18.5 48t-39 26t-55.5 8q-50 0 -99.5 -20.5t-108.5 -57.5z" />
    <glyph glyph-name="uni0184" unicode="&#x184;" horiz-adv-x="599" 
d="M140 750h45l-47 -250h220q58 0 97.5 -8t61.5 -28.5t27.5 -55.5t-4.5 -89l-29 -154q-17 -91 -74 -128t-149 -37h-80q-112 0 -152.5 43t-22.5 137zM298 43q44 0 74 9.5t49 26.5t29.5 40t15.5 50l30 157q8 42 3.5 68t-22.5 40t-51 18.5t-81 4.5h-215l-53 -281
q-14 -75 15.5 -104t112.5 -29h93z" />
    <glyph glyph-name="uni0185" unicode="&#x185;" horiz-adv-x="549" 
d="M353 560q40 0 69.5 -13.5t47.5 -37.5t23.5 -57.5t-1.5 -73.5l-33 -176q-12 -63 -35 -104t-55 -65t-70 -33.5t-80 -9.5h-19q-55 0 -90.5 12.5t-55 34.5t-24.5 50.5t1 61.5l114 608l47 17l-55 -289q17 11 40 24t50 24.5t59 19t67 7.5zM75 154q-4 -21 -3.5 -43t12.5 -40.5
t39.5 -30t76.5 -11.5h20q85 0 132 42.5t66 143.5l28 148q8 44 4 74t-18.5 48t-39 26t-55.5 8q-49 0 -99 -20.5t-109 -57.5z" />
    <glyph glyph-name="uni0186" unicode="&#x186;" horiz-adv-x="587" 
d="M121 735q69 25 174 25q155 0 216 -79.5t27 -251.5l-28 -139q-16 -77 -42.5 -133.5t-68.5 -93.5t-102.5 -55t-144.5 -18q-15 0 -37.5 1t-47.5 4.5t-50.5 9t-46.5 14.5l8 43q44 -17 88.5 -23t89.5 -6q80 0 134.5 20t90 56.5t55.5 86.5t32 110l28 142q26 138 -20.5 203.5
t-178.5 65.5q-57 0 -102 -5.5t-83 -16.5z" />
    <glyph glyph-name="uni0187" unicode="&#x187;" horiz-adv-x="588" 
d="M596 695q-33 11 -74 16.5t-98 5.5q-134 0 -208 -65t-98 -204l-25 -142q-11 -60 -9 -110t23.5 -86.5t68 -56.5t125.5 -20q42 0 90 6t97 23l-8 -43q-24 -9 -51.5 -14.5t-54 -9t-49 -4.5t-37.5 -1q-85 0 -138.5 23.5t-80.5 66.5t-30.5 104.5t10.5 138.5l25 134
q16 86 46.5 144t75.5 93.5t103.5 50.5t131.5 15q37 0 70 -3t61 -10l7 34q7 38 18.5 63t27.5 39.5t37.5 20.5t49.5 6q18 0 37.5 -3t27.5 -7l-8 -38q-11 3 -24.5 5.5t-31.5 2.5q-23 0 -38.5 -5t-25.5 -17t-16.5 -32.5t-12.5 -50.5l-14 -70v0z" />
    <glyph glyph-name="uni0188" unicode="&#x188;" horiz-adv-x="542" 
d="M448 499q-22 8 -52.5 14t-77.5 6q-100 0 -156.5 -49t-75.5 -152l-15 -84q-20 -107 17.5 -155t141.5 -48q30 0 67 5.5t77 20.5l-8 -41q-35 -15 -74.5 -20.5t-74.5 -5.5q-117 0 -165 61t-24 193l15 81q12 69 38 114.5t62 72.5t81.5 37.5t97.5 10.5q26 0 50 -2.5t44 -7.5
l4 21q7 38 19 63t28.5 39.5t37 20.5t46.5 6q18 0 37.5 -3t27.5 -7l-8 -37q-11 3 -24.5 5.5t-31.5 2.5q-22 0 -37 -5t-25.5 -17.5t-17.5 -33t-13 -50.5l-9 -45z" />
    <glyph glyph-name="uni0189" unicode="&#x189;" horiz-adv-x="707" 
d="M26 408h91l65 342h222q76 0 132.5 -14t89.5 -49.5t42.5 -96.5t-8.5 -155l-26 -137q-15 -81 -39 -138t-64.5 -92.5t-103 -51.5t-153.5 -16h-233l68 363h-91zM220 705l-56 -297h247l-8 -45h-248l-59 -318h181q81 0 135.5 15t89 46t53.5 78.5t31 111.5l29 154q14 73 9 122
t-30.5 78.5t-71.5 42t-114 12.5h-188z" />
    <glyph glyph-name="uni018A" unicode="&#x18a;" horiz-adv-x="734" 
d="M68 0l132 706h-17q-40 0 -66 -9.5t-41 -29t-21 -50t-6 -73.5h-43q-1 46 7 84t29 65t55.5 42t86.5 15h247q76 0 132.5 -14t89.5 -49.5t42.5 -96.5t-8.5 -155l-26 -137q-15 -81 -39 -138t-64.5 -92.5t-103 -51.5t-153.5 -16h-233zM247 705l-124 -660h181q81 0 135.5 15
t89 46t53.5 78.5t31 111.5l29 154q14 73 9 122t-30.5 78.5t-71.5 42t-114 12.5h-188z" />
    <glyph glyph-name="uni018B" unicode="&#x18b;" horiz-adv-x="633" 
d="M477 0h-261q-50 0 -90.5 7.5t-66.5 29.5t-35 61.5t3 104.5l7 38q12 60 35 95.5t58 54.5t82.5 24.5t109.5 5.5h190l54 285h-378l8 44h425zM438 44l63 333h-185q-56 0 -96.5 -5.5t-68.5 -20.5t-45 -42t-26 -70l-10 -54q-8 -43 -3 -70.5t24.5 -43t52.5 -21.5t80 -6h214z" />
    <glyph glyph-name="uni018C" unicode="&#x18c;" horiz-adv-x="561" 
d="M258 522q36 0 66 -7.5t55 -19t44.5 -24.5t33.5 -24l51 272h-348l8 40h393l-143 -759h-32l5 55q-57 -34 -107 -50t-102 -16q-46 0 -81 11.5t-56 38t-27 69.5t6 106l27 138q17 81 69 125.5t138 44.5zM449 402q-38 32 -83.5 55.5t-102.5 23.5q-32 0 -59.5 -8t-49.5 -26
t-37.5 -48t-24.5 -74l-22 -110q-20 -101 8 -143.5t112 -42.5q39 0 94.5 16.5t106.5 50.5z" />
    <glyph glyph-name="uni018D" unicode="&#x18d;" horiz-adv-x="553" 
d="M303 -105q4 18 -2 31t-26 29t-57.5 38.5t-97.5 59.5q-34 21 -53.5 46.5t-28.5 55.5t-8 63.5t8 69.5l8 42q12 60 35.5 103.5t57.5 71.5t77.5 41.5t93.5 13.5q108 0 154 -62t24 -186l-7 -39q-23 -116 -93 -173t-179 -55q46 -25 75 -44.5t44 -36.5t19 -34.5t0 -38.5l-2 -10
q-8 -44 -50.5 -74t-126.5 -30q-40 0 -77 7t-71 24l8 43q63 -33 139 -33q38 0 63 7t40.5 17.5t22.5 23t9 24.5zM304 519q-39 0 -74 -11t-62.5 -35t-48 -62.5t-31.5 -93.5l-7 -35q-11 -54 -5.5 -92t24 -61.5t49.5 -34.5t70 -11q40 0 75 10.5t63 34t48.5 61.5t31.5 93l7 35
q10 55 4.5 93.5t-24 62.5t-49.5 35t-71 11z" />
    <glyph glyph-name="uni018E" unicode="&#x18e;" horiz-adv-x="576" 
d="M561 750l-141 -750h-450l9 45h402l61 325h-355l8 43h355l55 292h-385l9 45h432z" />
    <glyph glyph-name="uni018F" unicode="&#x18f;" horiz-adv-x="666" 
d="M569 401l4 20q31 154 -22 226t-196 72q-34 0 -81.5 -9t-98.5 -28l8 46q45 18 93.5 26t86.5 8q87 0 144 -23.5t87 -68.5t34.5 -110.5t-11.5 -148.5l-14 -76q-33 -179 -123 -262t-220 -83q-60 0 -108.5 19t-78.5 60t-39.5 105.5t8.5 155.5l14 71h513zM86 326
q-57 -293 176 -293q112 0 187 71t104 217l7 36h-468z" />
    <glyph glyph-name="uni0190" unicode="&#x190;" horiz-adv-x="566" 
d="M321 368q-46 0 -89.5 -11.5t-77 -35.5t-54 -62t-20.5 -91q0 -65 45.5 -101t145.5 -36q60 0 116 10t101 27l-8 -41q-39 -15 -94 -27t-125 -12q-113 0 -172 45t-59 127q0 91 49.5 150.5t143.5 79.5q-56 17 -79 51.5t-23 79.5q0 61 21 106t59.5 74.5t93.5 44t123 14.5
q60 0 102.5 -8.5t76.5 -23.5l-7 -41q-41 16 -82.5 23t-92.5 7q-67 0 -114 -15t-76.5 -41t-43 -61t-13.5 -76q0 -58 42.5 -86t116.5 -28h121l-8 -42h-119z" />
    <glyph glyph-name="uni0191" unicode="&#x191;" horiz-adv-x="554" 
d="M579 750l-9 -45h-375l-60 -315h350l-9 -44h-349l-62 -330l-3 -16l-7 -36q-7 -38 -17.5 -64t-26 -42.5t-38 -24t-53.5 -7.5q-17 0 -33.5 2.5t-27.5 7.5l8 38q11 -3 23.5 -5.5t30.5 -2.5q24 0 38.5 6.5t24.5 20t15.5 35t11.5 51.5l7 37l138 734h423z" />
    <glyph glyph-name="florin" unicode="&#x192;" horiz-adv-x="344" 
d="M87 -36q-7 -38 -18 -64t-27.5 -42.5t-40 -24t-55.5 -7.5q-19 0 -39.5 3t-31.5 7l7 38q27 -8 64 -8q47 0 67.5 26t31.5 87l99 526h-99l7 41h100l19 104q6 35 19.5 59t32.5 38.5t43 20.5t52 6q29 0 52.5 -3.5t37.5 -7.5l-6 -36q-17 3 -34 5t-35 2q-23 0 -42 -2.5t-34 -12
t-26 -28t-17 -51.5l-18 -94h163l-8 -41h-162z" />
    <glyph glyph-name="uni0193" unicode="&#x193;" horiz-adv-x="664" 
d="M607 717l-4 -21q-33 11 -75 16t-99 5q-78 0 -132 -19.5t-90 -55.5t-56.5 -86t-31.5 -110l-26 -139q-10 -53 -9 -102t22.5 -87.5t69.5 -61.5t132 -23q51 0 96 6t80 17l54 294h-195l9 43h242l-71 -370q-48 -18 -107.5 -25.5t-113.5 -7.5q-88 0 -143.5 24t-84.5 67
t-34.5 102.5t7.5 131.5l25 131q15 81 42 140.5t70.5 98t105 57t144.5 18.5q79 0 135 -12l7 33q7 38 18.5 63t27.5 39.5t37.5 20.5t49.5 6q18 0 37.5 -3t27.5 -7l-8 -38q-11 3 -24.5 5.5t-31.5 2.5q-23 0 -38 -5t-25 -17t-17 -32.5t-13 -50.5l-6 -29z" />
    <glyph glyph-name="uni0194" unicode="&#x194;" horiz-adv-x="513" 
d="M47 127q8 35 26 61.5t45 58.5l110 132l-159 371h49l142 -333l276 333h55l-313 -376l55 -126q18 -43 26.5 -72.5t3.5 -57.5l-3 -16q-11 -55 -58.5 -83.5t-117.5 -28.5q-42 0 -70.5 11t-45.5 29.5t-22 42t0 48.5zM246 336l-96 -116q-14 -17 -23.5 -29t-16 -23t-10.5 -22
t-7 -24l-1 -6q-8 -43 20.5 -64t72.5 -21q49 0 85.5 19t44.5 62l1 6q3 13 2.5 24.5t-3 22.5t-7.5 24t-12 31z" />
    <glyph glyph-name="uni0195" unicode="&#x195;" horiz-adv-x="890" 
d="M433 159q-6 -29 -3 -52.5t17 -40t40.5 -25.5t68.5 -9q75 0 119 34.5t55 92.5l73 387h45l-74 -394q-14 -75 -71 -118.5t-151 -43.5q-98 0 -138.5 46t-26.5 121l42 221q6 29 8.5 54.5t-4 44.5t-25.5 30t-57 11q-51 0 -105 -20.5t-113 -55.5l-84 -442h-44l142 757l49 17
l-55 -288q21 13 46.5 26.5t53.5 24t57 17t58 6.5q81 0 108.5 -41.5t13.5 -119.5z" />
    <glyph glyph-name="uni0196" unicode="&#x196;" horiz-adv-x="231" 
d="M214 7q-20 -8 -45 -12.5t-48 -4.5q-66 0 -86 33t-7 101l117 633l49 17l-120 -641q-6 -33 -6 -53.5t7 -31t21.5 -14t36.5 -3.5q18 0 42 3.5t46 12.5z" />
    <glyph glyph-name="uni0197" unicode="&#x197;" horiz-adv-x="235" 
d="M144 412h131l-8 -43h-131l-69 -369h-47l69 369h-129l8 43h129l64 338h47z" />
    <glyph glyph-name="uni0198" unicode="&#x198;" horiz-adv-x="642" 
d="M659 714q-4 2 -11 3.5t-13 1.5q-18 0 -29.5 -8.5t-28.5 -26.5l-275 -308l222 -376h-54l-210 357h-131l-67 -357h-47l141 750h47l-66 -349h129l273 308q14 15 25 25t21.5 16t21 8t24.5 2q22 0 36 -6z" />
    <glyph glyph-name="uni0199" unicode="&#x199;" horiz-adv-x="488" 
d="M198 322l230 224h61l-258 -246l163 -300h-50l-148 282h-93l-54 -282h-44l121 642q7 38 18 63.5t27 40.5t38 21.5t51 6.5q18 0 36.5 -3t26.5 -7l-7 -38q-10 3 -23 5.5t-32 2.5q-45 0 -63.5 -23.5t-28.5 -78.5l-59 -310h88z" />
    <glyph glyph-name="uni019A" unicode="&#x19a;" horiz-adv-x="235" 
d="M-32 417h131l63 340l49 17l-67 -357h131l-8 -42h-131l-70 -375h-44l69 375h-131z" />
    <glyph glyph-name="uni019B" unicode="&#x19b;" horiz-adv-x="510" 
d="M79 528l180 78l-17 95q-4 20 -11.5 28t-30.5 8q-20 0 -37.5 -6.5t-21.5 -8.5l7 38q13 6 29.5 10t32.5 4q32 0 48 -14.5t21 -41.5l18 -96l163 71l-7 -41l-150 -65l113 -587h-43l-61 340q-4 22 -7.5 40t-7 37t-6.5 40t-7 48q-15 -27 -27 -48t-22.5 -40t-21 -37t-22.5 -40
l-200 -340h-51l330 548l-4 23l-194 -84z" />
    <glyph glyph-name="uni019C" unicode="&#x19c;" horiz-adv-x="927" 
d="M181 750l-110 -584q-6 -29 -5 -53.5t11 -42.5t31.5 -28t57.5 -10q48 0 102.5 18t116.5 60q0 11 1.5 22t3.5 24l112 594h44l-110 -584q-5 -26 -5 -50.5t9.5 -43t31 -29.5t59.5 -11q47 0 101 17.5t114 57.5l121 643h45l-141 -750h-38l5 63q-45 -31 -101 -52t-114 -21
t-91 21.5t-43 61.5q-22 -16 -49 -31t-57 -26.5t-61.5 -18.5t-63.5 -7q-82 0 -115 43.5t-18 122.5l112 594h44z" />
    <glyph glyph-name="uni019D" unicode="&#x19d;" horiz-adv-x="689" 
d="M533 0h-50l-228 529q-17 39 -32 76.5t-32 82.5l-129 -688l-7 -36q-7 -38 -17.5 -64t-26 -42.5t-38 -24t-53.5 -7.5q-17 0 -33.5 2.5t-27.5 7.5l8 38q11 -3 23.5 -5.5t30.5 -2.5q24 0 38.5 6.5t24.5 20t15.5 35t11.5 51.5l4 21l3 16l138 734h51l228 -529q10 -23 18 -42
t15 -37t14 -37t15 -42l131 687h46z" />
    <glyph glyph-name="uni019E" unicode="&#x19e;" horiz-adv-x="552" 
d="M325 -216l111 593q6 29 7 55t-7.5 45t-28.5 30t-57 11q-43 0 -99.5 -19.5t-119.5 -56.5l-82 -442h-44l103 546h37l-7 -63q48 31 104.5 54t117.5 23q42 0 69 -12t42 -34.5t17.5 -53.5t-4.5 -70l-114 -606h-45z" />
    <glyph glyph-name="uni019F" unicode="&#x19f;" 
d="M648 313q-31 -162 -121.5 -243.5t-238.5 -81.5q-146 0 -209 87.5t-33 249.5l22 114q31 161 123 242t238 81t208.5 -86t31.5 -249zM609 358h-510l-6 -34q-28 -148 23.5 -220t176.5 -72q122 0 202 72t108 220zM107 400h511l5 26q28 147 -22.5 219.5t-177.5 72.5
q-125 0 -204 -72.5t-107 -219.5z" />
    <glyph glyph-name="Ohorn" unicode="&#x1a0;" horiz-adv-x="753" 
d="M648 313q-31 -162 -121.5 -243.5t-238.5 -81.5q-146 0 -209 87.5t-33 249.5l22 114q31 161 123 242t238 81q166 0 223 -113h29q38 0 61.5 7.5t37 25t18.5 46t6 70.5h43q0 -47 -7 -83t-25 -60.5t-49 -37t-79 -12.5h-18q19 -73 0 -178zM623 426q28 147 -22.5 219.5
t-177.5 72.5q-125 0 -204 -72.5t-107 -219.5l-19 -102q-28 -148 23.5 -220t176.5 -72q122 0 202 72t108 220z" />
    <glyph glyph-name="ohorn" unicode="&#x1a1;" horiz-adv-x="610" 
d="M490 239q-23 -121 -95.5 -185t-184.5 -64q-111 0 -158 67.5t-24 188.5l13 69q23 121 95 183t183 62q75 0 120.5 -29.5t62.5 -86.5h13q33 0 52.5 9.5t30 28.5t14 45.5t5.5 61.5h43q0 -48 -7.5 -83.5t-24.5 -59t-45.5 -35t-71.5 -11.5h-2q3 -41 -6 -92zM459 310
q18 102 -17 155.5t-129 53.5q-44 0 -82 -13.5t-68 -40t-50.5 -65.5t-29.5 -90l-12 -70q-18 -98 16 -153.5t127 -55.5q95 0 154.5 55t77.5 154z" />
    <glyph glyph-name="uni01A2" unicode="&#x1a2;" horiz-adv-x="990" 
d="M648 313q-31 -162 -121.5 -243.5t-238.5 -81.5q-146 0 -209 87.5t-33 249.5l22 114q31 161 123 242t238 81q116 0 181 -57q35 23 80.5 40t106.5 17q85 0 124.5 -42.5t23.5 -122.5l-153 -813h-47l151 807q6 28 4.5 52t-13 40.5t-35 26t-62.5 9.5q-36 0 -76.5 -12
t-75.5 -33q61 -87 31 -247zM623 426q28 147 -22.5 219.5t-177.5 72.5q-125 0 -204 -72.5t-107 -219.5l-19 -102q-28 -148 23.5 -220t176.5 -72q122 0 202 72t108 220z" />
    <glyph glyph-name="uni01A3" unicode="&#x1a3;" horiz-adv-x="811" 
d="M490 239q-23 -121 -95.5 -185t-184.5 -64q-111 0 -158 67.5t-24 188.5l13 69q23 121 95 183t183 62q91 0 140 -46q30 20 71 33t84 13q86 0 115.5 -43t13.5 -123l-115 -610h-44l115 612q6 28 6 51t-9.5 39.5t-30.5 25t-57 8.5q-28 0 -60 -8.5t-64 -26.5q40 -66 19 -177z
M459 310q18 102 -17 155.5t-129 53.5q-44 0 -82 -13.5t-68 -40t-50.5 -65.5t-29.5 -90l-12 -70q-18 -98 16 -153.5t127 -55.5q95 0 154.5 55t77.5 154z" />
    <glyph glyph-name="uni01A4" unicode="&#x1a4;" horiz-adv-x="668" 
d="M200 706h-17q-40 0 -66 -9.5t-41 -29t-21 -50t-6 -73.5h-43q-1 46 7 84t29 65t55.5 42t86.5 15h284q50 0 91 -7.5t67 -29.5t35.5 -62t-2.5 -104l-10 -53q-11 -60 -33 -95.5t-56.5 -54.5t-81.5 -24.5t-109 -5.5h-195l-59 -314h-47zM248 706l-66 -348h187q56 0 96.5 5
t68.5 20t44.5 42t24.5 71l13 72q7 39 1.5 65.5t-24.5 42.5t-51.5 23t-79.5 7h-214z" />
    <glyph glyph-name="uni01A5" unicode="&#x1a5;" horiz-adv-x="568" 
d="M89 430l22 116l18 97q7 38 18 63t27 40t37.5 21.5t50.5 6.5q18 0 36.5 -3t26.5 -7l-7 -38q-10 3 -23 5.5t-32 2.5q-45 0 -63.5 -23.5t-28.5 -78.5l-28 -147q19 12 43.5 25t52.5 24t60 18.5t67 7.5q42 0 73 -13.5t49.5 -37.5t24.5 -58t-2 -74l-34 -175q-12 -62 -32.5 -103
t-51.5 -65.5t-71 -34.5t-91 -10q-42 0 -88 10t-84 27l-46 -242h-45zM67 66q37 -19 83 -28t87 -9q45 0 78 10.5t56.5 33t39 58t24.5 85.5l29 146q9 45 5 75t-19 48.5t-40 26t-58 7.5q-53 0 -109 -23t-106 -55z" />
    <glyph glyph-name="uni01A6" unicode="&#x1a6;" horiz-adv-x="613" 
d="M156 750h47l-20 -106h212q50 0 90.5 -7.5t67 -29t36 -60.5t-2.5 -102l-10 -51q-9 -46 -24.5 -76.5t-38.5 -50t-53.5 -29.5t-69.5 -15l118 -329h-49l-113 324h-243l-41 -218h-47zM175 600l-64 -339h186q56 0 96.5 5.5t68.5 20t44.5 41t24.5 68.5l12 62q8 42 3 69.5
t-24 43.5t-52.5 22.5t-81.5 6.5h-213z" />
    <glyph glyph-name="uni01A7" unicode="&#x1a7;" horiz-adv-x="537" 
d="M438 74l-9 -47q-60 -21 -118 -29t-110 -8q-60 0 -100 12t-63.5 33t-33.5 49.5t-10 61.5q0 59 14 99t41 67t67.5 44.5t93.5 31.5l122 32q84 22 121.5 67t37.5 128q0 60 -42.5 81t-126.5 21q-40 0 -86 -4.5t-89 -15.5l8 42q39 11 83 16t92 5q104 0 155.5 -34.5t50.5 -109.5
q0 -53 -12.5 -92.5t-37 -68t-60.5 -47.5t-84 -31l-127 -33q-42 -11 -74 -24.5t-54 -35t-33.5 -53t-11.5 -78.5q0 -64 42.5 -91.5t123.5 -27.5q45 0 102.5 7.5t127.5 32.5z" />
    <glyph glyph-name="uni01A8" unicode="&#x1a8;" horiz-adv-x="427" 
d="M338 63l-8 -43q-23 -9 -47.5 -14.5t-48.5 -9t-45 -5t-36 -1.5q-46 0 -77.5 9.5t-51 26.5t-28 39t-8.5 48q0 46 13.5 77.5t38 52t58 33t74.5 21.5l52 12q45 10 72.5 23t42.5 29.5t20 37t5 46.5q0 37 -26 56t-93 19q-40 0 -76.5 -5.5t-71.5 -14.5l7 39q29 10 67.5 15.5
t78.5 5.5q72 0 114.5 -27t42.5 -85q0 -36 -8.5 -63.5t-28.5 -49t-53 -37.5t-81 -27l-51 -12q-36 -9 -64.5 -18.5t-48 -25.5t-29.5 -39.5t-10 -60.5q0 -18 6 -33.5t21 -27t40 -17.5t63 -6q31 0 76.5 6.5t98.5 25.5z" />
    <glyph glyph-name="uni01A9" unicode="&#x1a9;" horiz-adv-x="501" 
d="M541 750l-9 -45h-376l187 -335l-315 -325h385l-9 -45h-451l6 36l324 341l-190 346l5 27h443z" />
    <glyph glyph-name="uni01AA" unicode="&#x1aa;" horiz-adv-x="341" 
d="M314 -157q-20 -8 -45 -12.5t-48 -4.5q-66 0 -86 33t-7 101l108 587q-18 -12 -39.5 -19.5t-45.5 -7.5q-49 0 -75 27t-26 69q0 29 10 56.5t29 49t46 34.5t62 13q49 0 77 -29.5t28 -71.5q0 -3 -0.5 -9.5t-4.5 -28l-12 -64.5t-22 -119.5t-36 -193t-53 -284.5q-6 -33 -6 -53.5
t7 -31t21.5 -14t36.5 -3.5q18 0 42 3.5t46 12.5zM160 559q19 0 36.5 7.5t30.5 21t20.5 33.5t7.5 44q0 29 -15.5 47t-46.5 18q-43 0 -70.5 -31.5t-27.5 -77.5q0 -29 17 -45.5t48 -16.5z" />
    <glyph glyph-name="uni01AB" unicode="&#x1ab;" horiz-adv-x="359" 
d="M181 505l-69 -366q-6 -33 -6 -54t8 -33t23 -16.5t39 -4.5q23 0 49.5 5t49.5 17l-5 -25l-12 -64q-7 -38 -18 -64t-27.5 -42.5t-40 -24t-55.5 -7.5q-19 0 -39.5 3t-31.5 7l7 38q27 -8 64 -8q47 0 67.5 26t31.5 87l3 16q-28 -5 -53 -5q-66 0 -90 32t-11 100l72 383h-97l8 41
h97l24 132l48 18l-28 -150h177l-7 -41h-178z" />
    <glyph glyph-name="uni01AC" unicode="&#x1ac;" horiz-adv-x="643" 
d="M674 705h-244l-133 -705h-47l133 705h-128q-35 0 -60 -7t-40.5 -25.5t-23 -49.5t-7.5 -79h-44q0 48 8 86t28.5 64.5t54.5 41t86 14.5h426z" />
    <glyph glyph-name="uni01AD" unicode="&#x1ad;" horiz-adv-x="376" 
d="M193 546h177l-7 -41h-178l-69 -366q-6 -33 -6 -54t8 -33t23 -16.5t39 -4.5q23 0 49.5 5t49.5 17l-8 -41q-18 -11 -45 -16.5t-56 -5.5q-66 0 -90 32t-11 100l72 383h-97l8 41h97l18 97q7 38 18 63t27 40t37.5 21.5t50.5 6.5q18 0 36.5 -3t26.5 -7l-7 -38q-10 3 -23 5.5
t-32 2.5q-45 0 -63.5 -23.5t-28.5 -78.5z" />
    <glyph glyph-name="uni01AE" unicode="&#x1ae;" horiz-adv-x="595" 
d="M89 750h546l-9 -45h-244l-130 -689l-3 -16l-4 -21q-6 -30 -8 -51.5t2 -35t16 -20t36 -6.5q20 0 34 2.5t26 5.5l-8 -38q-11 -4 -27 -7t-34 -3q-60 0 -81.5 32.5t-5.5 108.5l10 49l130 689h-255z" />
    <glyph glyph-name="Uhorn" unicode="&#x1af;" horiz-adv-x="761" 
d="M198 750l-88 -469q-25 -131 17.5 -190t159.5 -59q118 0 184 61t92 195l87 462h46l-19 -101h28q38 0 61.5 7.5t37 25t18.5 46t6 70.5h43q0 -47 -7 -83t-25 -60.5t-49 -37t-79 -12.5h-43l-61 -328q-14 -74 -39 -128.5t-63.5 -90.5t-92.5 -53.5t-125 -17.5q-143 0 -198 71.5
t-27 218.5l89 473h47z" />
    <glyph glyph-name="uhorn" unicode="&#x1b0;" horiz-adv-x="612" 
d="M148 546l-73 -391q-5 -28 -4.5 -50.5t10 -38.5t29 -25t52.5 -9q51 0 111.5 22.5t112.5 57.5l82 434h44l-19 -102h24q33 0 52.5 9.5t30 28.5t14 45.5t5.5 61.5h43q0 -48 -7.5 -83.5t-24.5 -59t-45.5 -35t-71.5 -11.5h-29l-74 -400h-38l6 67q-19 -13 -44 -26.5t-53.5 -25
t-59.5 -18.5t-61 -7q-84 0 -114.5 40.5t-16.5 118.5l75 397h44z" />
    <glyph glyph-name="uni01B1" unicode="&#x1b1;" horiz-adv-x="760" 
d="M88 750h284l-7 -38q-86 -20 -147 -91t-85 -194l-20 -104q-29 -148 22 -220t176 -72t204 72t108 220l20 104q24 122 -7.5 194t-108.5 92l6 37h284l-9 -46h-183q51 -42 67.5 -112.5t-3.5 -171.5l-23 -116q-30 -154 -122 -235.5t-241 -81.5q-146 0 -206.5 88.5t-28.5 250.5
l23 116q18 95 60 159.5t102 102.5h-174z" />
    <glyph glyph-name="uni01B2" unicode="&#x1b2;" horiz-adv-x="587" 
d="M556 589q14 25 23.5 46.5t9.5 46.5q0 17 -10 28t-40 11q-14 0 -31.5 -2.5t-40.5 -9.5l8 41q37 12 75 12q50 0 70 -22t20 -51q0 -31 -13.5 -60t-29.5 -57l-324 -572h-46l-147 750h50l101 -532q7 -41 13 -79.5t13 -89.5q13 25 24 46t21.5 40t20.5 37.5t22 39.5z" />
    <glyph glyph-name="uni01B3" unicode="&#x1b3;" horiz-adv-x="655" 
d="M534 705q23 30 44.5 43.5t55.5 13.5q73 0 73 -87q0 -46 -24 -103h-38q9 23 15.5 47.5t6.5 50.5q0 29 -8.5 40.5t-29.5 11.5q-19 0 -32.5 -9.5t-27.5 -29.5l-276 -373l-58 -310h-46l57 308l-172 442h47l107 -284q6 -16 11 -29.5t9.5 -27t10 -29t12.5 -36.5l22 33t20 29
t20.5 28t23.5 32z" />
    <glyph glyph-name="uni01B4" unicode="&#x1b4;" horiz-adv-x="529" 
d="M85 -216h-47l125 216l-114 546h47l67 -340l8.5 -42.5t7 -34.5t6.5 -36.5t8 -46.5q13 26 24 46t21 38t20.5 36t22.5 40l289 508q18 32 40.5 46t54.5 14q11 0 23.5 -2t20.5 -5l-8 -40q-6 3 -16.5 4.5t-18.5 1.5q-20 0 -32 -8.5t-25 -30.5z" />
    <glyph glyph-name="uni01B5" unicode="&#x1b5;" horiz-adv-x="598" 
d="M363 412h173l-8 -44h-203l-180 -210l-102 -114h464l-8 -44h-522l6 37l284 331h-185l8 44h214l155 180l102 114h-437l8 44h496l-7 -37z" />
    <glyph glyph-name="uni01B6" unicode="&#x1b6;" horiz-adv-x="460" 
d="M260 304h121l-7 -39h-149l-105 -117q-14 -15 -25.5 -28l-23 -26t-23.5 -26t-27 -29h352l-6 -39h-407l5 32l209 233h-125l7 39h153l107 118q24 26 42.5 46.5t37.5 38.5h-330l8 39h382l-6 -32z" />
    <glyph glyph-name="uni01B7" unicode="&#x1b7;" horiz-adv-x="558" 
d="M499 706h-435l8 44h498l-7 -36l-355 -386q85 5 140 -11t85.5 -48t38.5 -77.5t-2 -98.5l-13 -63q-11 -57 -36.5 -103.5t-68 -80t-103.5 -51.5t-142 -18q-85 0 -147 14.5t-101 31.5l8 43q48 -19 105.5 -32t140.5 -13q257 0 302 226l9 47q20 100 -25 146t-167 46
q-27 0 -51 -1.5t-53 -5.5l1 26z" />
    <glyph glyph-name="uni01B8" unicode="&#x1b8;" horiz-adv-x="563" 
d="M415 305l-7 -26q-27 4 -48.5 5.5t-48.5 1.5q-122 0 -185 -46t-83 -146l-9 -47q-45 -226 214 -226q82 0 145.5 13t118.5 32l-8 -43q-47 -17 -114.5 -31.5t-151.5 -14.5q-81 0 -134.5 21.5t-83 58t-36.5 86.5t4 107l13 63q10 53 35 95t67 70.5t103 41.5t144 8l-205 386
l7 36h499l-8 -44h-440z" />
    <glyph glyph-name="uni01B9" unicode="&#x1b9;" horiz-adv-x="486" 
d="M338 202l-13 -24q-27 4 -46.5 5t-46.5 1q-53 0 -91.5 -10.5t-64.5 -30t-41 -48.5t-22 -65l-6 -33q-11 -57 3 -91.5t42.5 -54t65 -26t71.5 -6.5q56 0 103 9.5t96 26.5l-8 -41q-43 -17 -97 -27t-104 -10q-54 0 -99 13.5t-75 41.5t-42 70t0 99l9 49q6 33 23 65.5t51.5 57.5
t91 38.5t143.5 8.5l-168 290l7 36h395l-8 -39h-342z" />
    <glyph glyph-name="uni01BA" unicode="&#x1ba;" horiz-adv-x="435" 
d="M-70 -112q0 39 14 64.5t41 42t65.5 27t87.5 18.5q71 12 116.5 26t71 33t35 43t9.5 56q0 45 -42.5 61t-124.5 16q-26 0 -52.5 -1.5t-55.5 -5.5l-2 25l270 214h-326l8 39h390l-7 -36l-256 -200q11 1 22.5 1.5t20.5 0.5q103 0 150 -28.5t47 -85.5q0 -45 -14 -77.5t-46 -55.5
t-83.5 -38.5t-126.5 -27.5q-53 -9 -86 -18.5t-51 -22t-24.5 -28.5t-6.5 -38q0 -41 38 -56.5t101 -15.5q48 0 96 9.5t97 26.5l-8 -41q-44 -17 -96 -27t-99 -10q-48 0 -81.5 9.5t-53.5 25.5t-29 35.5t-9 39.5z" />
    <glyph glyph-name="uni01BB" unicode="&#x1bb;" horiz-adv-x="610" 
d="M88 365h282l34 30q30 27 49.5 47.5t32.5 37.5t20 33t10 34l5 25q6 31 1.5 56.5t-23 43.5t-53.5 28t-89 10q-51 0 -103.5 -10.5t-101.5 -31.5l9 47q41 17 92 28.5t105 11.5q116 0 171 -46.5t38 -134.5l-6 -29q-3 -17 -8 -34t-18 -38t-36.5 -47t-62.5 -61h97l-8 -42h-137
l-311 -277h414l-8 -46h-483l7 41l316 282h-243z" />
    <glyph glyph-name="uni01BC" unicode="&#x1bc;" horiz-adv-x="608" 
d="M93 745h482l-8 -44h-309l-84 -277q39 9 71.5 12.5t66.5 3.5q65 0 108.5 -14t68 -39t31 -60t-1.5 -78l-11 -57q-20 -102 -93.5 -152t-195.5 -50q-69 0 -122 11.5t-86 25.5l9 45q40 -16 89 -27t114 -11q57 0 98.5 12.5t70 35t45.5 53.5t25 67l9 43q7 35 3 63.5t-23.5 48
t-57 30t-96.5 10.5q-42 0 -92 -7.5t-93 -18.5l99 332h-125z" />
    <glyph glyph-name="uni01BD" unicode="&#x1bd;" horiz-adv-x="448" 
d="M55 546h358l-8 -40h-229l-56 -184q26 7 48.5 10t60.5 3q80 0 114 -37t22 -100l-11 -55q-14 -72 -67 -112.5t-146 -40.5q-54 0 -93.5 10t-64.5 22l8 41q36 -15 71.5 -23.5t85.5 -8.5q30 0 57 6t49 20t37.5 37t22.5 58l8 42q10 50 -14 76t-95 26q-38 0 -72 -5t-76 -18
l71 233h-89z" />
    <glyph glyph-name="uni01BE" unicode="&#x1be;" horiz-adv-x="441" 
d="M223 505q-8 -31 -6 -51.5t11 -35.5t23.5 -27.5t31.5 -27.5q22 -20 38 -35.5t26.5 -31.5t15.5 -34.5t5 -44.5q0 -112 -62.5 -170t-194.5 -58q-56 0 -99 12t-74 28l8 44q38 -17 81 -28t89 -11q60 0 99.5 14.5t62.5 38.5t32 56.5t9 68.5q0 38 -17.5 63.5t-49.5 51.5
q-28 22 -46 41t-26.5 39t-8.5 43.5t8 54.5h-143l8 41h143l26 132l46 18l-28 -150h170l-8 -41h-170z" />
    <glyph glyph-name="uni01BF" unicode="&#x1bf;" horiz-adv-x="567" 
d="M111 546h37l-5 -62q18 10 44.5 23.5t57.5 25t65.5 19.5t69.5 8q82 0 116 -51t18 -133l-23 -121q-12 -63 -36 -106t-57 -71.5t-73.5 -44.5t-85 -24.5t-92.5 -12t-95 -6.5l-40 -206h-44zM60 31q79 7 144 15.5t114.5 32.5t82.5 70t49 128l16 85q9 45 6 75t-17 48.5t-37.5 26
t-56.5 7.5q-22 0 -52 -7.5t-61 -18.5t-60.5 -25.5t-51.5 -27.5z" />
    <glyph glyph-name="uni01C0" unicode="&#x1c0;" horiz-adv-x="200" 
d="M10 -216h-46l185 990h46z" />
    <glyph glyph-name="uni01C1" unicode="&#x1c1;" horiz-adv-x="349" 
d="M10 -216h-46l186 990h46zM158 -216h-47l186 990h47z" />
    <glyph glyph-name="uni01C2" unicode="&#x1c2;" horiz-adv-x="307" 
d="M178 399h118l-7 -39h-118l-25 -130h118l-7 -39h-118l-76 -407h-46l76 407h-117l7 39h117l25 130h-117l7 39h117l70 375h46z" />
    <glyph glyph-name="uni01C3" unicode="&#x1c3;" horiz-adv-x="259" 
d="M113 185h-36l93 565h56zM44 77h63l-14 -77h-63z" />
    <glyph glyph-name="uni01C4" unicode="&#x1c4;" horiz-adv-x="1231" 
d="M15 0l141 750h222q76 0 132.5 -14t89.5 -49.5t42.5 -96.5t-8.5 -155l-26 -137q-15 -81 -39 -138t-64.5 -92.5t-103 -51.5t-153.5 -16h-233zM194 705l-124 -660h181q81 0 135.5 15t89 46t53.5 78.5t31 111.5l29 154q14 73 9 122t-30.5 78.5t-71.5 42t-114 12.5h-188z
M774 158l-102 -114h464l-8 -44h-522l6 37l476 555l102 114h-437l8 44h496l-7 -37zM929 944h40l52 -110l97 110h45l-124 -148h-45z" />
    <glyph glyph-name="uni01C5" unicode="&#x1c5;" horiz-adv-x="1128" 
d="M15 0l141 750h222q76 0 132.5 -14t89.5 -49.5t42.5 -96.5t-8.5 -155l-26 -137q-15 -81 -39 -138t-64.5 -92.5t-103 -51.5t-153.5 -16h-233zM194 705l-124 -660h181q81 0 135.5 15t89 46t53.5 78.5t31 111.5l29 154q14 73 9 122t-30.5 78.5t-71.5 42t-114 12.5h-188z
M788 148q-14 -15 -25.5 -28l-23 -26t-23.5 -26t-27 -29h352l-6 -39h-407l5 32l351 390q24 26 42.5 46.5t37.5 38.5h-330l8 39h382l-6 -32zM856 744h40l52 -110l97 110h45l-124 -148h-45z" />
    <glyph glyph-name="uni01C6" unicode="&#x1c6;" horiz-adv-x="1027" 
d="M687 148q-14 -15 -25.5 -28l-23 -26t-23.5 -26t-27 -29h352l-6 -39h-407l5 32l351 390q24 26 42.5 46.5t37.5 38.5h-330l8 39h382l-6 -32zM157 -10q-44 0 -73 14.5t-45.5 40.5t-20.5 61t4 76l32 169q11 60 33.5 100t55 64.5t73.5 34.5t89 10q21 0 45.5 -3.5t48 -9
t43.5 -13t32 -16.5l45 239l49 17l-146 -774h-38l6 64q-19 -12 -43.5 -25t-54 -24t-63.5 -18t-72 -7zM467 478q-11 8 -30 15.5t-41.5 13t-46.5 9t-45 3.5q-44 0 -79 -9.5t-60.5 -31.5t-43 -57.5t-26.5 -87.5l-28 -153q-16 -84 13 -117t94 -33q28 0 58 6.5t59.5 17t56 24.5
t49.5 29zM755 744h40l52 -110l97 110h45l-124 -148h-45z" />
    <glyph glyph-name="uni01C7" unicode="&#x1c7;" horiz-adv-x="942" 
d="M203 750l-133 -705h385l-8 -45h-432l141 750h47zM929 750l-111 -590q-9 -50 -25 -82.5t-39 -52t-55 -27.5t-74 -8q-32 0 -65.5 5t-51.5 10l9 45q29 -8 54 -11.5t57 -3.5q35 0 59.5 7.5t41.5 24t27.5 42.5t17.5 62l109 579h46z" />
    <glyph glyph-name="uni01C8" unicode="&#x1c8;" horiz-adv-x="762" 
d="M203 750l-133 -705h385l-8 -45h-432l141 750h47zM598 -106q-11 -59 -41 -86t-92 -27q-21 0 -43.5 3t-42.5 8l8 41q19 -5 37 -7.5t47 -2.5q38 0 57 18.5t27 60.5l121 644h45zM743 675h-48l13 70h49z" />
    <glyph glyph-name="uni01C9" unicode="&#x1c9;" horiz-adv-x="402" 
d="M5 0l140 757l49 17l-145 -774h-44zM238 -106q-11 -59 -41 -86t-92 -27q-21 0 -43.5 3t-42.5 8l8 41q19 -5 37 -7.5t47 -2.5q38 0 57 18.5t27 60.5l121 644h45zM383 675h-48l13 70h49z" />
    <glyph glyph-name="uni01CA" unicode="&#x1ca;" horiz-adv-x="1079" 
d="M533 0h-50l-228 529q-17 39 -32 76.5t-32 82.5l-129 -688h-47l141 750h51l228 -529q10 -23 18 -42t15 -37t14 -37t15 -42l131 687h46zM1066 750l-111 -590q-9 -50 -25 -82.5t-39 -52t-55 -27.5t-74 -8q-32 0 -65.5 5t-51.5 10l9 45q29 -8 54 -11.5t57 -3.5q35 0 59.5 7.5
t41.5 24t27.5 42.5t17.5 62l109 579h46z" />
    <glyph glyph-name="uni01CB" unicode="&#x1cb;" horiz-adv-x="899" 
d="M533 0h-50l-228 529q-17 39 -32 76.5t-32 82.5l-129 -688h-47l141 750h51l228 -529q10 -23 18 -42t15 -37t14 -37t15 -42l131 687h46zM735 -106q-11 -59 -41 -86t-92 -27q-21 0 -43.5 3t-42.5 8l8 41q19 -5 37 -7.5t47 -2.5q38 0 57 18.5t27 60.5l121 644h45zM880 675
h-48l13 70h49z" />
    <glyph glyph-name="uni01CC" unicode="&#x1cc;" horiz-adv-x="761" 
d="M368 0l71 377q6 29 8 55t-5 45t-27 30t-58 11q-94 0 -225 -76l-83 -442h-44l102 546h37l-6 -62q22 13 48 27t55 24.5t60 17.5t61 7q80 0 110 -41.5t16 -119.5l-75 -399h-45zM597 -106q-11 -59 -41 -86t-92 -27q-21 0 -43.5 3t-42.5 8l8 41q19 -5 37 -7.5t47 -2.5
q38 0 57 18.5t27 60.5l121 644h45zM742 675h-48l13 70h49z" />
    <glyph glyph-name="uni01CD" unicode="&#x1cd;" horiz-adv-x="644" 
d="M564 0h-48l-47 231h-350l-129 -231h-50l423 750h45zM461 275l-53 270l-27 157q-14 -25 -24.5 -44.5t-20 -37.5t-20 -36.5t-22.5 -40.5l-149 -268h316zM307 944h40l52 -110l97 110h45l-124 -148h-45z" />
    <glyph glyph-name="uni01CE" unicode="&#x1ce;" horiz-adv-x="525" 
d="M336 0l8 68q-17 -11 -41.5 -24.5t-54.5 -25.5t-63.5 -20t-67.5 -8q-70 0 -100 38t-15 119l5 26q8 45 28.5 73.5t51.5 44.5t71.5 21.5t89.5 5.5h140l11 58q6 32 8 58.5t-7.5 45t-34.5 29t-72 10.5q-35 0 -80.5 -7.5t-88.5 -23.5l8 42q45 16 87.5 23t81.5 7q58 0 90 -14.5
t46 -39.5t13 -59t-9 -74l-68 -373h-37zM381 279h-132q-44 0 -78 -4.5t-58.5 -17t-40 -35t-22.5 -57.5l-4 -20q-11 -60 9 -87.5t70 -27.5q30 0 62 7.5t62.5 18.5t56.5 25t44 28zM228 744h40l52 -110l97 110h45l-124 -148h-45z" />
    <glyph glyph-name="uni01CF" unicode="&#x1cf;" horiz-adv-x="218" 
d="M62 0h-47l141 750h47zM103 944h40l52 -110l97 110h45l-124 -148h-45z" />
    <glyph glyph-name="uni01D0" unicode="&#x1d0;" horiz-adv-x="198" 
d="M5 0l103 546h44l-103 -546h-44zM53 744h40l52 -110l97 110h45l-124 -148h-45z" />
    <glyph glyph-name="uni01D1" unicode="&#x1d1;" 
d="M648 313q-31 -162 -121.5 -243.5t-238.5 -81.5q-146 0 -209 87.5t-33 249.5l22 114q31 161 123 242t238 81t208.5 -86t31.5 -249zM623 426q28 147 -22.5 219.5t-177.5 72.5q-125 0 -204 -72.5t-107 -219.5l-19 -102q-28 -148 23.5 -220t176.5 -72q122 0 202 72t108 220z
M349 944h40l52 -110l97 110h45l-124 -148h-45z" />
    <glyph glyph-name="uni01D2" unicode="&#x1d2;" horiz-adv-x="569" 
d="M490 239q-23 -121 -95.5 -185t-184.5 -64q-111 0 -158 67.5t-24 188.5l13 69q23 121 95 183t183 62q112 0 159.5 -65.5t24.5 -186.5zM459 310q18 102 -17 155.5t-129 53.5q-44 0 -82 -13.5t-68 -40t-50.5 -65.5t-29.5 -90l-12 -70q-18 -98 16 -153.5t127 -55.5
q95 0 154.5 55t77.5 154zM247 744h40l52 -110l97 110h45l-124 -148h-45z" />
    <glyph glyph-name="uni01D3" unicode="&#x1d3;" horiz-adv-x="706" 
d="M198 750l-88 -469q-25 -131 17.5 -190t159.5 -59q118 0 184 61t92 195l87 462h46l-89 -473q-14 -74 -39 -128.5t-63.5 -90.5t-92.5 -53.5t-125 -17.5q-143 0 -198 71.5t-27 218.5l89 473h47zM344 944h40l52 -110l97 110h45l-124 -148h-45z" />
    <glyph glyph-name="uni01D4" unicode="&#x1d4;" horiz-adv-x="555" 
d="M148 546l-73 -391q-5 -28 -4.5 -50.5t10 -38.5t29 -25t52.5 -9q51 0 111.5 22.5t112.5 57.5l82 434h44l-102 -546h-38l6 67q-19 -13 -44 -26.5t-53.5 -25t-59.5 -18.5t-61 -7q-84 0 -114.5 40.5t-16.5 118.5l75 397h44zM230 744h40l52 -110l97 110h45l-124 -148h-45z" />
    <glyph glyph-name="uni01D5" unicode="&#x1d5;" horiz-adv-x="706" 
d="M198 750l-88 -469q-25 -131 17.5 -190t159.5 -59q118 0 184 61t92 195l87 462h46l-89 -473q-14 -74 -39 -128.5t-63.5 -90.5t-92.5 -53.5t-125 -17.5q-143 0 -198 71.5t-27 218.5l89 473h47zM339 894h62l-16 -83h-62zM497 894h62l-16 -83h-62zM338 1011h266l-7 -40h-266z
" />
    <glyph glyph-name="uni01D6" unicode="&#x1d6;" horiz-adv-x="555" 
d="M148 546l-73 -391q-5 -28 -4.5 -50.5t10 -38.5t29 -25t52.5 -9q51 0 111.5 22.5t112.5 57.5l82 434h44l-102 -546h-38l6 67q-19 -13 -44 -26.5t-53.5 -25t-59.5 -18.5t-61 -7q-84 0 -114.5 40.5t-16.5 118.5l75 397h44zM232 694h62l-16 -83h-62zM390 694h62l-16 -83h-62z
M229 804h266l-7 -40h-266z" />
    <glyph glyph-name="uni01D7" unicode="&#x1d7;" horiz-adv-x="706" 
d="M198 750l-88 -469q-25 -131 17.5 -190t159.5 -59q118 0 184 61t92 195l87 462h46l-89 -473q-14 -74 -39 -128.5t-63.5 -90.5t-92.5 -53.5t-125 -17.5q-143 0 -198 71.5t-27 218.5l89 473h47zM540 1059h63l-125 -134h-50zM339 894h62l-16 -83h-62zM497 894h62l-16 -83h-62
z" />
    <glyph glyph-name="uni01D8" unicode="&#x1d8;" horiz-adv-x="555" 
d="M148 546l-73 -391q-5 -28 -4.5 -50.5t10 -38.5t29 -25t52.5 -9q51 0 111.5 22.5t112.5 57.5l82 434h44l-102 -546h-38l6 67q-19 -13 -44 -26.5t-53.5 -25t-59.5 -18.5t-61 -7q-84 0 -114.5 40.5t-16.5 118.5l75 397h44zM433 861h63l-125 -134h-50zM232 694h62l-16 -83
h-62zM390 694h62l-16 -83h-62z" />
    <glyph glyph-name="uni01D9" unicode="&#x1d9;" horiz-adv-x="706" 
d="M198 750l-88 -469q-25 -131 17.5 -190t159.5 -59q118 0 184 61t92 195l87 462h46l-89 -473q-14 -74 -39 -128.5t-63.5 -90.5t-92.5 -53.5t-125 -17.5q-143 0 -198 71.5t-27 218.5l89 473h47zM370 1070h40l52 -110l97 110h45l-124 -148h-45zM339 894h62l-16 -83h-62z
M497 894h62l-16 -83h-62z" />
    <glyph glyph-name="uni01DA" unicode="&#x1da;" horiz-adv-x="555" 
d="M148 546l-73 -391q-5 -28 -4.5 -50.5t10 -38.5t29 -25t52.5 -9q51 0 111.5 22.5t112.5 57.5l82 434h44l-102 -546h-38l6 67q-19 -13 -44 -26.5t-53.5 -25t-59.5 -18.5t-61 -7q-84 0 -114.5 40.5t-16.5 118.5l75 397h44zM259 877h40l52 -110l97 110h45l-124 -148h-45z
M232 694h62l-16 -83h-62zM390 694h62l-16 -83h-62z" />
    <glyph glyph-name="uni01DB" unicode="&#x1db;" horiz-adv-x="706" 
d="M198 750l-88 -469q-25 -131 17.5 -190t159.5 -59q118 0 184 61t92 195l87 462h46l-89 -473q-14 -74 -39 -128.5t-63.5 -90.5t-92.5 -53.5t-125 -17.5q-143 0 -198 71.5t-27 218.5l89 473h47zM480 925h-47l-79 134h61zM339 894h62l-16 -83h-62zM497 894h62l-16 -83h-62z
" />
    <glyph glyph-name="uni01DC" unicode="&#x1dc;" horiz-adv-x="557" 
d="M148 546l-73 -391q-5 -28 -4.5 -50.5t10 -38.5t29 -25t52.5 -9q51 0 111.5 22.5t112.5 57.5l82 434h44l-102 -546h-38l6 67q-19 -13 -44 -26.5t-53.5 -25t-59.5 -18.5t-61 -7q-84 0 -114.5 40.5t-16.5 118.5l75 397h44zM373 727h-47l-79 134h61zM232 694h62l-16 -83h-62z
M390 694h62l-16 -83h-62z" />
    <glyph glyph-name="uni01DD" unicode="&#x1dd;" horiz-adv-x="538" 
d="M422 285l6 31q12 63 6.5 102.5t-27.5 62t-60 30.5t-92 8q-29 0 -64.5 -5.5t-71.5 -19.5l8 40q33 14 73.5 20t74.5 6q66 0 109.5 -16t66.5 -48t27.5 -79t-7.5 -108l-11 -58q-13 -72 -39 -122t-61 -80.5t-78 -44.5t-91 -14t-84 13.5t-58 43t-28 77.5t6 117l8 44h387z
M68 237q-20 -102 7 -154.5t121 -52.5q38 0 73 12t64.5 37t50.5 64.5t30 93.5l2 11h-346z" />
    <glyph glyph-name="uni01DE" unicode="&#x1de;" horiz-adv-x="648" 
d="M564 0h-48l-47 231h-350l-129 -231h-50l423 750h45zM461 275l-53 270l-27 157q-14 -25 -24.5 -44.5t-20 -37.5t-20 -36.5t-22.5 -40.5l-149 -268h316zM302 1011h266l-7 -40h-266zM303 894h62l-16 -83h-62zM461 894h62l-16 -83h-62z" />
    <glyph glyph-name="uni01DF" unicode="&#x1df;" horiz-adv-x="511" 
d="M336 0l8 68q-17 -11 -41.5 -24.5t-54.5 -25.5t-63.5 -20t-67.5 -8q-70 0 -100 38t-15 119l5 26q8 45 28.5 73.5t51.5 44.5t71.5 21.5t89.5 5.5h140l11 58q6 32 8 58.5t-7.5 45t-34.5 29t-72 10.5q-35 0 -80.5 -7.5t-88.5 -23.5l8 42q45 16 87.5 23t81.5 7q58 0 90 -14.5
t46 -39.5t13 -59t-9 -74l-68 -373h-37zM381 279h-132q-44 0 -78 -4.5t-58.5 -17t-40 -35t-22.5 -57.5l-4 -20q-11 -60 9 -87.5t70 -27.5q30 0 62 7.5t62.5 18.5t56.5 25t44 28zM222 694h62l-16 -83h-62zM380 694h62l-16 -83h-62zM219 804h266l-7 -40h-266z" />
    <glyph glyph-name="uni01E0" unicode="&#x1e0;" horiz-adv-x="648" 
d="M564 0h-48l-47 231h-350l-129 -231h-50l423 750h45zM461 275l-53 270l-27 157q-14 -25 -24.5 -44.5t-20 -37.5t-20 -36.5t-22.5 -40.5l-149 -268h316zM302 1011h266l-7 -40h-266zM383 902h61l-13 -71h-61z" />
    <glyph glyph-name="uni01E1" unicode="&#x1e1;" horiz-adv-x="511" 
d="M336 0l8 68q-17 -11 -41.5 -24.5t-54.5 -25.5t-63.5 -20t-67.5 -8q-70 0 -100 38t-15 119l5 26q8 45 28.5 73.5t51.5 44.5t71.5 21.5t89.5 5.5h140l11 58q6 32 8 58.5t-7.5 45t-34.5 29t-72 10.5q-35 0 -80.5 -7.5t-88.5 -23.5l8 42q45 16 87.5 23t81.5 7q58 0 90 -14.5
t46 -39.5t13 -59t-9 -74l-68 -373h-37zM381 279h-132q-44 0 -78 -4.5t-58.5 -17t-40 -35t-22.5 -57.5l-4 -20q-11 -60 9 -87.5t70 -27.5q30 0 62 7.5t62.5 18.5t56.5 25t44 28zM302 698h61l-13 -71h-61zM229 804h266l-7 -40h-266z" />
    <glyph glyph-name="uni01E2" unicode="&#x1e2;" horiz-adv-x="995" 
d="M1010 750l-9 -45h-389l-57 -292h357l-8 -43h-357l-63 -325h403l-8 -45h-450l44 231h-281l-194 -231h-58l627 750h443zM228 275h254l80 414q-15 -23 -33 -47t-43 -54zM604 910h266l-7 -40h-266z" />
    <glyph glyph-name="uni01E3" unicode="&#x1e3;" horiz-adv-x="868" 
d="M416 271l-9 -46q-12 -59 -5 -96.5t29 -59t58 -30t83 -8.5q29 0 66.5 6.5t74.5 20.5l-8 -40q-34 -14 -72 -21t-68 -7q-75 0 -124 22.5t-69 67.5q-21 -15 -49.5 -31t-61.5 -29t-69.5 -21.5t-75.5 -8.5q-72 0 -100.5 43.5t-11.5 121.5l3 15q9 39 26.5 65.5t46 42.5t69 23
t95.5 7h136l13 65q6 32 8 58.5t-7.5 46t-34.5 30.5t-72 11q-37 0 -78 -7.5t-84 -23.5l8 42q45 16 86 23t79 7q41 0 68 -8t43 -22t23.5 -33t9.5 -42q15 24 37 43t49 33t57.5 21.5t60.5 7.5q98 0 143 -61t23 -178l-10 -50h-386zM362 115q-5 26 -3.5 59t9.5 71l5 24h-136
q-88 0 -133.5 -25t-56.5 -86l-3 -16q-11 -58 9.5 -84.5t70.5 -26.5q36 0 70.5 8t65.5 20.5t57 27.5t45 28zM770 324q8 43 6.5 79t-16 62t-43 40.5t-73.5 14.5q-36 0 -71.5 -13t-65 -38t-51 -63t-31.5 -87l-2 -11h344zM386 710h266l-7 -40h-266z" />
    <glyph glyph-name="uni01E4" unicode="&#x1e4;" horiz-adv-x="641" 
d="M324 251h196l22 121h-195l9 43h242l-32 -164h78l-8 -43h-78l-35 -185q-48 -18 -107.5 -25.5t-113.5 -7.5q-88 0 -143.5 24t-84.5 67t-34.5 102.5t7.5 131.5l25 131q15 81 42 140.5t70.5 98t105 57t144.5 18.5q57 0 102 -6.5t76 -17.5l-9 -40q-33 11 -75 16t-99 5
q-78 0 -132 -19.5t-90 -55.5t-56.5 -86t-31.5 -110l-26 -139q-10 -53 -9 -102t22.5 -87.5t69.5 -61.5t132 -23q51 0 96 6t80 17l28 152h-196z" />
    <glyph glyph-name="uni01E5" unicode="&#x1e5;" horiz-adv-x="566" 
d="M-7 -35h374l22 125q-19 -12 -43.5 -24.5t-53.5 -23.5t-61.5 -18t-68.5 -7q-44 0 -74 14.5t-46.5 40.5t-20.5 61t4 76l28 142q11 60 33.5 100t54.5 64.5t73 34.5t89 10q54 0 98 -15.5t69 -32.5l12 38h39l-109 -585h79l-7 -40h-81q-22 -74 -75 -111t-154 -37q-13 0 -30 1
t-35 3t-35.5 5.5t-29.5 8.5l7 40q29 -11 63 -14.5t55 -3.5q69 0 117.5 22.5t70.5 85.5h-371zM461 475q-23 17 -67 30.5t-91 13.5q-44 0 -79 -9.5t-60.5 -31.5t-43 -57.5t-26.5 -87.5l-24 -126q-16 -81 12 -115.5t92 -34.5q28 0 59 7t60 18t56 25t48 29z" />
    <glyph glyph-name="Gcaron" unicode="&#x1e6;" horiz-adv-x="641" 
d="M603 696q-33 11 -75 16t-99 5q-78 0 -132 -19.5t-90 -55.5t-56.5 -86t-31.5 -110l-26 -139q-10 -53 -9 -102t22.5 -87.5t69.5 -61.5t132 -23q51 0 96 6t80 17l54 294h-195l9 43h242l-71 -370q-48 -18 -107.5 -25.5t-113.5 -7.5q-88 0 -143.5 24t-84.5 67t-34.5 102.5
t7.5 131.5l25 131q15 81 42 140.5t70.5 98t105 57t144.5 18.5q57 0 101.5 -6.5t75.5 -17.5zM350 944h40l52 -110l97 110h45l-124 -148h-45z" />
    <glyph glyph-name="gcaron" unicode="&#x1e7;" horiz-adv-x="566" 
d="M386 70q-19 -12 -43.5 -24.5t-53.5 -23.5t-61.5 -18t-68.5 -7q-44 0 -74 14.5t-46.5 40.5t-20.5 61t4 76l31 162q11 60 33.5 100t54.5 64.5t73 34.5t89 10q54 0 98 -15.5t69 -32.5l12 38h39l-110 -591q-17 -92 -71 -137t-166 -45q-13 0 -30 1t-35 3t-35.5 5.5t-29.5 8.5
l7 40q29 -11 63 -14.5t55 -3.5q39 0 71.5 6.5t57.5 22.5t42.5 43.5t25.5 69.5zM461 475q-23 17 -67 30.5t-91 13.5q-44 0 -79 -9.5t-60.5 -31.5t-43 -57.5t-26.5 -87.5l-27 -146q-16 -81 12 -115.5t92 -34.5q28 0 59 7t60 18t56 25t48 29zM236 744h40l52 -110l97 110h45
l-124 -148h-45z" />
    <glyph glyph-name="uni01E8" unicode="&#x1e8;" horiz-adv-x="611" 
d="M302 376l222 -376h-54l-210 357h-131l-67 -357h-47l141 750h47l-66 -349h129l310 349h60zM300 944h40l52 -110l97 110h45l-124 -148h-45z" />
    <glyph glyph-name="uni01E9" unicode="&#x1e9;" horiz-adv-x="496" 
d="M110 322h88l230 224h61l-258 -246l163 -300h-50l-148 282h-93l-54 -282h-44l142 757l49 17zM267 944h40l52 -110l97 110h45l-124 -148h-45z" />
    <glyph glyph-name="uni01EA" unicode="&#x1ea;" 
d="M319 -222q-58 0 -86 24.5t-20 66.5l2 11q6 34 32 62t59 47q-5 0 -9 -0.5t-9 -0.5q-146 0 -209 87.5t-33 249.5l22 114q31 161 123 242t238 81t208.5 -86t31.5 -249l-21 -114q-51 -264 -259 -314q-21 -9 -41.5 -21.5t-38 -27.5t-29.5 -32t-15 -36l-1 -6q-2 -13 -0.5 -23.5
t9.5 -17.5t23 -11t39 -4q14 0 34.5 2.5t29.5 5.5l-7 -39q-33 -11 -73 -11zM623 426q28 147 -22.5 219.5t-177.5 72.5q-125 0 -204 -72.5t-107 -219.5l-19 -102q-28 -148 23.5 -220t176.5 -72q122 0 202 72t108 220z" />
    <glyph glyph-name="uni01EB" unicode="&#x1eb;" horiz-adv-x="569" 
d="M219 -222q-58 0 -86 24.5t-20 66.5l2 11q6 35 32.5 63.5t61.5 46.5q-110 0 -157 67.5t-24 188.5l13 69q23 121 95 183t183 62q112 0 159.5 -65.5t24.5 -186.5l-13 -69q-19 -98 -70 -158.5t-130 -80.5q-21 -9 -42 -21.5t-38.5 -27.5t-29.5 -32.5t-15 -36.5l-1 -6
q-2 -13 -0.5 -23.5t9.5 -17.5t23 -11t39 -4q14 0 34.5 2.5t29.5 5.5l-7 -39q-33 -11 -73 -11zM459 310q18 102 -17 155.5t-129 53.5q-44 0 -82 -13.5t-68 -40t-50.5 -65.5t-29.5 -90l-12 -70q-18 -98 16 -153.5t127 -55.5q95 0 154.5 55t77.5 154z" />
    <glyph glyph-name="uni01EC" unicode="&#x1ec;" 
d="M319 -222q-58 0 -86 24.5t-20 66.5l2 11q6 34 32 62t59 47q-5 0 -9 -0.5t-9 -0.5q-146 0 -209 87.5t-33 249.5l22 114q31 161 123 242t238 81t208.5 -86t31.5 -249l-21 -114q-51 -264 -259 -314q-21 -9 -41.5 -21.5t-38 -27.5t-29.5 -32t-15 -36l-1 -6q-2 -13 -0.5 -23.5
t9.5 -17.5t23 -11t39 -4q14 0 34.5 2.5t29.5 5.5l-7 -39q-33 -11 -73 -11zM623 426q28 147 -22.5 219.5t-177.5 72.5q-125 0 -204 -72.5t-107 -219.5l-19 -102q-28 -148 23.5 -220t176.5 -72q122 0 202 72t108 220zM329 910h266l-7 -40h-266z" />
    <glyph glyph-name="uni01ED" unicode="&#x1ed;" horiz-adv-x="569" 
d="M219 -222q-58 0 -86 24.5t-20 66.5l2 11q6 35 32.5 63.5t61.5 46.5q-110 0 -157 67.5t-24 188.5l13 69q23 121 95 183t183 62q112 0 159.5 -65.5t24.5 -186.5l-13 -69q-19 -98 -70 -158.5t-130 -80.5q-21 -9 -42 -21.5t-38.5 -27.5t-29.5 -32.5t-15 -36.5l-1 -6
q-2 -13 -0.5 -23.5t9.5 -17.5t23 -11t39 -4q14 0 34.5 2.5t29.5 5.5l-7 -39q-33 -11 -73 -11zM459 310q18 102 -17 155.5t-129 53.5q-44 0 -82 -13.5t-68 -40t-50.5 -65.5t-29.5 -90l-12 -70q-18 -98 16 -153.5t127 -55.5q95 0 154.5 55t77.5 154zM216 710h266l-7 -40h-266z
" />
    <glyph glyph-name="uni01EE" unicode="&#x1ee;" horiz-adv-x="558" 
d="M499 706h-435l8 44h498l-7 -36l-355 -386q85 5 140 -11t85.5 -48t38.5 -77.5t-2 -98.5l-13 -63q-11 -57 -36.5 -103.5t-68 -80t-103.5 -51.5t-142 -18q-85 0 -147 14.5t-101 31.5l8 43q48 -19 105.5 -32t140.5 -13q257 0 302 226l9 47q20 100 -25 146t-167 46
q-27 0 -51 -1.5t-53 -5.5l1 26zM238 944h40l52 -110l97 110h45l-124 -148h-45z" />
    <glyph glyph-name="uni01EF" unicode="&#x1ef;" horiz-adv-x="457" 
d="M364 507h-340l8 39h395l-7 -36l-274 -288q88 4 137 -13.5t72 -46t25 -64t-4 -68.5l-9 -49q-10 -54 -37 -93t-66 -63.5t-89 -36t-106 -11.5q-22 0 -47.5 2.5t-51 7.5t-49 11.5t-41.5 15.5l8 41q42 -17 88 -26.5t97 -9.5q37 0 77 6.5t75 26t62.5 54t38.5 91.5l6 33
q7 36 3 65t-22.5 48.5t-52.5 30t-87 10.5q-27 0 -48 -1t-50 -5l-2 24zM152 744h40l52 -110l97 110h45l-124 -148h-45z" />
    <glyph glyph-name="uni01F0" unicode="&#x1f0;" horiz-adv-x="199" 
d="M34 -106q-11 -59 -41 -86t-92 -27q-21 0 -43.5 3t-42.5 8l8 41q19 -5 37 -7.5t47 -2.5q38 0 57 18.5t27 60.5l121 644h45zM55 744h40l52 -110l97 110h45l-124 -148h-45z" />
    <glyph glyph-name="uni01F1" unicode="&#x1f1;" horiz-adv-x="1231" 
d="M15 0l141 750h222q76 0 132.5 -14t89.5 -49.5t42.5 -96.5t-8.5 -155l-26 -137q-15 -81 -39 -138t-64.5 -92.5t-103 -51.5t-153.5 -16h-233zM194 705l-124 -660h181q81 0 135.5 15t89 46t53.5 78.5t31 111.5l29 154q14 73 9 122t-30.5 78.5t-71.5 42t-114 12.5h-188z
M774 158l-102 -114h464l-8 -44h-522l6 37l476 555l102 114h-437l8 44h496l-7 -37z" />
    <glyph glyph-name="uni01F2" unicode="&#x1f2;" horiz-adv-x="1128" 
d="M15 0l141 750h222q76 0 132.5 -14t89.5 -49.5t42.5 -96.5t-8.5 -155l-26 -137q-15 -81 -39 -138t-64.5 -92.5t-103 -51.5t-153.5 -16h-233zM194 705l-124 -660h181q81 0 135.5 15t89 46t53.5 78.5t31 111.5l29 154q14 73 9 122t-30.5 78.5t-71.5 42t-114 12.5h-188z
M788 148q-14 -15 -25.5 -28l-23 -26t-23.5 -26t-27 -29h352l-6 -39h-407l5 32l351 390q24 26 42.5 46.5t37.5 38.5h-330l8 39h382l-6 -32z" />
    <glyph glyph-name="uni01F3" unicode="&#x1f3;" horiz-adv-x="1027" 
d="M687 148q-14 -15 -25.5 -28l-23 -26t-23.5 -26t-27 -29h352l-6 -39h-407l5 32l351 390q24 26 42.5 46.5t37.5 38.5h-330l8 39h382l-6 -32zM157 -10q-44 0 -73 14.5t-45.5 40.5t-20.5 61t4 76l32 169q11 60 33.5 100t55 64.5t73.5 34.5t89 10q21 0 45.5 -3.5t48 -9
t43.5 -13t32 -16.5l45 239l49 17l-146 -774h-38l6 64q-19 -12 -43.5 -25t-54 -24t-63.5 -18t-72 -7zM467 478q-11 8 -30 15.5t-41.5 13t-46.5 9t-45 3.5q-44 0 -79 -9.5t-60.5 -31.5t-43 -57.5t-26.5 -87.5l-28 -153q-16 -84 13 -117t94 -33q28 0 58 6.5t59.5 17t56 24.5
t49.5 29z" />
    <glyph glyph-name="uni01F4" unicode="&#x1f4;" horiz-adv-x="641" 
d="M603 696q-33 11 -75 16t-99 5q-78 0 -132 -19.5t-90 -55.5t-56.5 -86t-31.5 -110l-26 -139q-10 -53 -9 -102t22.5 -87.5t69.5 -61.5t132 -23q51 0 96 6t80 17l54 294h-195l9 43h242l-71 -370q-48 -18 -107.5 -25.5t-113.5 -7.5q-88 0 -143.5 24t-84.5 67t-34.5 102.5
t7.5 131.5l25 131q15 81 42 140.5t70.5 98t105 57t144.5 18.5q57 0 101.5 -6.5t75.5 -17.5zM505 940h63l-125 -134h-50z" />
    <glyph glyph-name="uni01F5" unicode="&#x1f5;" horiz-adv-x="566" 
d="M386 70q-19 -12 -43.5 -24.5t-53.5 -23.5t-61.5 -18t-68.5 -7q-44 0 -74 14.5t-46.5 40.5t-20.5 61t4 76l31 162q11 60 33.5 100t54.5 64.5t73 34.5t89 10q54 0 98 -15.5t69 -32.5l12 38h39l-110 -591q-17 -92 -71 -137t-166 -45q-13 0 -30 1t-35 3t-35.5 5.5t-29.5 8.5
l7 40q29 -11 63 -14.5t55 -3.5q39 0 71.5 6.5t57.5 22.5t42.5 43.5t25.5 69.5zM461 475q-23 17 -67 30.5t-91 13.5q-44 0 -79 -9.5t-60.5 -31.5t-43 -57.5t-26.5 -87.5l-27 -146q-16 -81 12 -115.5t92 -34.5q28 0 59 7t60 18t56 25t48 29zM392 740h63l-125 -134h-50z" />
    <glyph glyph-name="uni01F6" unicode="&#x1f6;" horiz-adv-x="1022" 
d="M561 160q-11 -60 15.5 -94t108.5 -34q75 0 119 34.5t55 92.5l76 387h45l-78 -394q-15 -78 -69.5 -120t-148.5 -42q-99 0 -142 44.5t-28 122.5l41 216h-423l-70 -373h-47l141 750h47l-63 -333h423l63 333h45z" />
    <glyph glyph-name="uni01F7" unicode="&#x1f7;" horiz-adv-x="579" 
d="M156 750h46l-16 -85l192 74q26 10 49.5 14.5t43.5 4.5q74 0 104 -45t14 -128l-29 -155q-18 -95 -62.5 -161.5t-109 -111t-145.5 -70t-173 -38.5l-50 -265h-46zM79 94q92 15 166 40t129 65.5t90.5 99t51.5 140.5l24 126q16 83 -5 117t-73 34q-18 0 -40 -5t-46 -14
l-199 -78z" />
    <glyph glyph-name="uni01F8" unicode="&#x1f8;" horiz-adv-x="689" 
d="M533 0h-50l-228 529q-17 39 -32 76.5t-32 82.5l-129 -688h-47l141 750h51l228 -529q10 -23 18 -42t15 -37t14 -37t15 -42l131 687h46zM493 806h-47l-79 134h61z" />
    <glyph glyph-name="uni01F9" unicode="&#x1f9;" horiz-adv-x="555" 
d="M368 0l71 377q6 29 8 55t-5 45t-27 30t-58 11q-94 0 -225 -76l-83 -442h-44l102 546h37l-6 -62q22 13 48 27t55 24.5t60 17.5t61 7q80 0 110 -41.5t16 -119.5l-75 -399h-45zM377 606h-47l-79 134h61z" />
    <glyph glyph-name="Aringacute" unicode="&#x1fa;" horiz-adv-x="663" 
d="M564 0h-48l-47 231h-350l-129 -231h-50l423 750h45zM461 275l-53 270l-27 157q-14 -25 -24.5 -44.5t-20 -37.5t-20 -36.5t-22.5 -40.5l-149 -268h316zM429 973q35 0 55.5 -21.5t20.5 -52.5q0 -48 -31 -80.5t-79 -32.5q-34 0 -54.5 21.5t-20.5 52.5q0 48 30.5 80.5
t78.5 32.5zM401 820q29 0 48.5 21.5t19.5 53.5q0 20 -11 32t-34 12q-29 0 -48.5 -21.5t-19.5 -53.5q0 -20 11 -32t34 -12zM520 1140h63l-125 -134h-50z" />
    <glyph glyph-name="aringacute" unicode="&#x1fb;" horiz-adv-x="513" 
d="M336 0l8 68q-17 -11 -41.5 -24.5t-54.5 -25.5t-63.5 -20t-67.5 -8q-70 0 -100 38t-15 119l5 26q8 45 28.5 73.5t51.5 44.5t71.5 21.5t89.5 5.5h140l11 58q6 32 8 58.5t-7.5 45t-34.5 29t-72 10.5q-35 0 -80.5 -7.5t-88.5 -23.5l8 42q45 16 87.5 23t81.5 7q58 0 90 -14.5
t46 -39.5t13 -59t-9 -74l-68 -373h-37zM381 279h-132q-44 0 -78 -4.5t-58.5 -17t-40 -35t-22.5 -57.5l-4 -20q-11 -60 9 -87.5t70 -27.5q30 0 62 7.5t62.5 18.5t56.5 25t44 28zM326 626q29 0 48.5 21.5t19.5 53.5q0 20 -11 32t-34 12q-29 0 -48.5 -21.5t-19.5 -53.5
q0 -20 11 -32t34 -12zM354 779q35 0 55.5 -21.5t20.5 -52.5q0 -48 -31 -80.5t-79 -32.5q-34 0 -54.5 21.5t-20.5 52.5q0 48 30.5 80.5t78.5 32.5zM451 944h63l-125 -134h-50z" />
    <glyph glyph-name="AEacute" unicode="&#x1fc;" horiz-adv-x="995" 
d="M1010 750l-9 -45h-389l-57 -292h357l-8 -43h-357l-63 -325h403l-8 -45h-450l44 231h-281l-194 -231h-58l627 750h443zM228 275h254l80 414q-15 -23 -33 -47t-43 -54zM784 940h63l-125 -134h-50z" />
    <glyph glyph-name="aeacute" unicode="&#x1fd;" horiz-adv-x="868" 
d="M416 271l-9 -46q-12 -59 -5 -96.5t29 -59t58 -30t83 -8.5q29 0 66.5 6.5t74.5 20.5l-8 -40q-34 -14 -72 -21t-68 -7q-75 0 -124 22.5t-69 67.5q-21 -15 -49.5 -31t-61.5 -29t-69.5 -21.5t-75.5 -8.5q-72 0 -100.5 43.5t-11.5 121.5l3 15q9 39 26.5 65.5t46 42.5t69 23
t95.5 7h136l13 65q6 32 8 58.5t-7.5 46t-34.5 30.5t-72 11q-37 0 -78 -7.5t-84 -23.5l8 42q45 16 86 23t79 7q41 0 68 -8t43 -22t23.5 -33t9.5 -42q15 24 37 43t49 33t57.5 21.5t60.5 7.5q98 0 143 -61t23 -178l-10 -50h-386zM362 115q-5 26 -3.5 59t9.5 71l5 24h-136
q-88 0 -133.5 -25t-56.5 -86l-3 -16q-11 -58 9.5 -84.5t70.5 -26.5q36 0 70.5 8t65.5 20.5t57 27.5t45 28zM770 324q8 43 6.5 79t-16 62t-43 40.5t-73.5 14.5q-36 0 -71.5 -13t-65 -38t-51 -63t-31.5 -87l-2 -11h344zM568 740h63l-125 -134h-50z" />
    <glyph glyph-name="Oslashacute" unicode="&#x1fe;" 
d="M83 77q-31 43 -39.5 105t6.5 143l22 114q31 161 123 242t238 81q126 0 190 -66l84 96h54l-113 -129q54 -86 25 -236l-21 -114q-31 -162 -121.5 -243.5t-238.5 -81.5q-118 0 -182 58l-78 -89h-54zM97 324q-27 -136 18 -210l477 546q-53 58 -165 58q-125 0 -204 -72.5
t-107 -219.5zM627 426q24 127 -12 199l-474 -543q53 -50 156 -50q122 0 202 72t108 220zM525 940h63l-125 -134h-50z" />
    <glyph glyph-name="oslashacute" unicode="&#x1ff;" horiz-adv-x="571" 
d="M494 239q-23 -121 -95.5 -185t-184.5 -64q-82 0 -129 38l-63 -71h-47l85 96q-52 68 -28 193l13 69q23 121 95 183t183 62q92 0 141 -46l62 70h47l-86 -98q41 -64 20 -178zM75 240q-18 -100 15 -152l344 391q-38 40 -117 40q-44 0 -82 -13.5t-68 -40t-50.5 -65.5
t-29.5 -90zM463 310q15 87 -9 139l-341 -388q37 -30 105 -30q95 0 154.5 55t77.5 154zM420 740h63l-125 -134h-50z" />
    <glyph glyph-name="uni0200" unicode="&#x200;" horiz-adv-x="644" 
d="M564 0h-48l-47 231h-350l-129 -231h-50l423 750h45zM461 275l-53 270l-27 157q-14 -25 -24.5 -44.5t-20 -37.5t-20 -36.5t-22.5 -40.5l-149 -268h316zM353 806h-43l-44 134h59zM471 806h-41l-41 134h60z" />
    <glyph glyph-name="uni0201" unicode="&#x201;" horiz-adv-x="513" 
d="M336 0l8 68q-17 -11 -41.5 -24.5t-54.5 -25.5t-63.5 -20t-67.5 -8q-70 0 -100 38t-15 119l5 26q8 45 28.5 73.5t51.5 44.5t71.5 21.5t89.5 5.5h140l11 58q6 32 8 58.5t-7.5 45t-34.5 29t-72 10.5q-35 0 -80.5 -7.5t-88.5 -23.5l8 42q45 16 87.5 23t81.5 7q58 0 90 -14.5
t46 -39.5t13 -59t-9 -74l-68 -373h-37zM381 279h-132q-44 0 -78 -4.5t-58.5 -17t-40 -35t-22.5 -57.5l-4 -20q-11 -60 9 -87.5t70 -27.5q30 0 62 7.5t62.5 18.5t56.5 25t44 28zM286 606h-43l-44 134h59zM404 606h-41l-41 134h60z" />
    <glyph glyph-name="uni0202" unicode="&#x202;" horiz-adv-x="644" 
d="M564 0h-48l-47 231h-350l-129 -231h-50l423 750h45zM461 275l-53 270l-27 157q-14 -25 -24.5 -44.5t-20 -37.5t-20 -36.5t-22.5 -40.5l-149 -268h316zM424 944q28 0 48 -10.5t32 -29.5t16 -44t0 -54h-36q6 46 -8.5 73t-54.5 27t-67.5 -27.5t-38.5 -72.5h-39q7 29 20 54.5
t31.5 44t43 29t53.5 10.5z" />
    <glyph glyph-name="uni0203" unicode="&#x203;" horiz-adv-x="513" 
d="M336 0l8 68q-17 -11 -41.5 -24.5t-54.5 -25.5t-63.5 -20t-67.5 -8q-70 0 -100 38t-15 119l5 26q8 45 28.5 73.5t51.5 44.5t71.5 21.5t89.5 5.5h140l11 58q6 32 8 58.5t-7.5 45t-34.5 29t-72 10.5q-35 0 -80.5 -7.5t-88.5 -23.5l8 42q45 16 87.5 23t81.5 7q58 0 90 -14.5
t46 -39.5t13 -59t-9 -74l-68 -373h-37zM381 279h-132q-44 0 -78 -4.5t-58.5 -17t-40 -35t-22.5 -57.5l-4 -20q-11 -60 9 -87.5t70 -27.5q30 0 62 7.5t62.5 18.5t56.5 25t44 28zM338 744q28 0 48 -10.5t32 -29.5t16 -44t0 -54h-36q6 46 -8.5 73t-54.5 27t-67.5 -27.5
t-38.5 -72.5h-39q7 29 20 54.5t31.5 44t43 29t53.5 10.5z" />
    <glyph glyph-name="uni0204" unicode="&#x204;" horiz-adv-x="573" 
d="M588 750l-9 -45h-385l-55 -292h353l-8 -43h-353l-61 -325h402l-7 -45h-450l141 750h432zM360 806h-43l-44 134h59zM478 806h-41l-41 134h60z" />
    <glyph glyph-name="uni0205" unicode="&#x205;" horiz-adv-x="530" 
d="M78 265l-6 -31q-12 -63 -6.5 -102.5t27.5 -62t60 -30.5t92 -8q29 0 64.5 5.5t71.5 19.5l-8 -40q-33 -14 -73.5 -20t-74.5 -6q-66 0 -109.5 16t-66.5 48t-27.5 78.5t7.5 108.5l11 58q13 72 39 122t61 80.5t78 44.5t91 14t84 -13.5t58 -43t28 -77.5t-6 -117l-8 -44h-387z
M432 313q20 102 -7 154.5t-121 52.5q-38 0 -73 -12t-64.5 -37t-50.5 -64.5t-30 -93.5l-2 -11h346zM284 606h-43l-44 134h59zM402 606h-41l-41 134h60z" />
    <glyph glyph-name="uni0206" unicode="&#x206;" horiz-adv-x="573" 
d="M588 750l-9 -45h-385l-55 -292h353l-8 -43h-353l-61 -325h402l-7 -45h-450l141 750h432zM408 944q28 0 48 -10.5t32 -29.5t16 -44t0 -54h-36q6 46 -8.5 73t-54.5 27t-67.5 -27.5t-38.5 -72.5h-39q7 29 20 54.5t31.5 44t43 29t53.5 10.5z" />
    <glyph glyph-name="uni0207" unicode="&#x207;" horiz-adv-x="530" 
d="M78 265l-6 -31q-12 -63 -6.5 -102.5t27.5 -62t60 -30.5t92 -8q29 0 64.5 5.5t71.5 19.5l-8 -40q-33 -14 -73.5 -20t-74.5 -6q-66 0 -109.5 16t-66.5 48t-27.5 78.5t7.5 108.5l11 58q13 72 39 122t61 80.5t78 44.5t91 14t84 -13.5t58 -43t28 -77.5t-6 -117l-8 -44h-387z
M432 313q20 102 -7 154.5t-121 52.5q-38 0 -73 -12t-64.5 -37t-50.5 -64.5t-30 -93.5l-2 -11h346zM342 744q28 0 48 -10.5t32 -29.5t16 -44t0 -54h-36q6 46 -8.5 73t-54.5 27t-67.5 -27.5t-38.5 -72.5h-39q7 29 20 54.5t31.5 44t43 29t53.5 10.5z" />
    <glyph glyph-name="uni0208" unicode="&#x208;" horiz-adv-x="218" 
d="M62 0h-47l141 750h47zM149 806h-43l-44 134h59zM267 806h-41l-41 134h60z" />
    <glyph glyph-name="uni0209" unicode="&#x209;" horiz-adv-x="197" 
d="M5 0l103 546h44l-103 -546h-44zM95 606h-43l-44 134h59zM213 606h-41l-41 134h60z" />
    <glyph glyph-name="uni020A" unicode="&#x20a;" horiz-adv-x="218" 
d="M62 0h-47l141 750h47zM208 944q28 0 48 -10.5t32 -29.5t16 -44t0 -54h-36q6 46 -8.5 73t-54.5 27t-67.5 -27.5t-38.5 -72.5h-39q7 29 20 54.5t31.5 44t43 29t53.5 10.5z" />
    <glyph glyph-name="uni020B" unicode="&#x20b;" horiz-adv-x="197" 
d="M158 744q28 0 48 -10.5t32 -29.5t16 -44t0 -54h-36q6 46 -8.5 73t-54.5 27t-67.5 -27.5t-38.5 -72.5h-39q7 29 20 54.5t31.5 44t43 29t53.5 10.5zM5 0l103 546h44l-103 -546h-44z" />
    <glyph glyph-name="uni020C" unicode="&#x20c;" 
d="M648 313q-31 -162 -121.5 -243.5t-238.5 -81.5q-146 0 -209 87.5t-33 249.5l22 114q31 161 123 242t238 81t208.5 -86t31.5 -249zM623 426q28 147 -22.5 219.5t-177.5 72.5q-125 0 -204 -72.5t-107 -219.5l-19 -102q-28 -148 23.5 -220t176.5 -72q122 0 202 72t108 220z
M390 806h-43l-44 134h59zM508 806h-41l-41 134h60z" />
    <glyph glyph-name="uni020D" unicode="&#x20d;" horiz-adv-x="569" 
d="M490 239q-23 -121 -95.5 -185t-184.5 -64q-111 0 -158 67.5t-24 188.5l13 69q23 121 95 183t183 62q112 0 159.5 -65.5t24.5 -186.5zM459 310q18 102 -17 155.5t-129 53.5q-44 0 -82 -13.5t-68 -40t-50.5 -65.5t-29.5 -90l-12 -70q-18 -98 16 -153.5t127 -55.5
q95 0 154.5 55t77.5 154zM283 606h-43l-44 134h59zM401 606h-41l-41 134h60z" />
    <glyph glyph-name="uni020E" unicode="&#x20e;" 
d="M648 313q-31 -162 -121.5 -243.5t-238.5 -81.5q-146 0 -209 87.5t-33 249.5l22 114q31 161 123 242t238 81t208.5 -86t31.5 -249zM623 426q28 147 -22.5 219.5t-177.5 72.5q-125 0 -204 -72.5t-107 -219.5l-19 -102q-28 -148 23.5 -220t176.5 -72q122 0 202 72t108 220z
M457 944q28 0 48 -10.5t32 -29.5t16 -44t0 -54h-36q6 46 -8.5 73t-54.5 27t-67.5 -27.5t-38.5 -72.5h-39q7 29 20 54.5t31.5 44t43 29t53.5 10.5z" />
    <glyph glyph-name="uni020F" unicode="&#x20f;" horiz-adv-x="569" 
d="M490 239q-23 -121 -95.5 -185t-184.5 -64q-111 0 -158 67.5t-24 188.5l13 69q23 121 95 183t183 62q112 0 159.5 -65.5t24.5 -186.5zM459 310q18 102 -17 155.5t-129 53.5q-44 0 -82 -13.5t-68 -40t-50.5 -65.5t-29.5 -90l-12 -70q-18 -98 16 -153.5t127 -55.5
q95 0 154.5 55t77.5 154zM345 744q28 0 48 -10.5t32 -29.5t16 -44t0 -54h-36q6 46 -8.5 73t-54.5 27t-67.5 -27.5t-38.5 -72.5h-39q7 29 20 54.5t31.5 44t43 29t53.5 10.5z" />
    <glyph glyph-name="uni0210" unicode="&#x210;" horiz-adv-x="632" 
d="M156 750h260q50 0 90.5 -7.5t67 -29t36 -60.5t-2.5 -102l-10 -51q-9 -46 -24.5 -76.5t-38.5 -50t-53.5 -29.5t-69.5 -15l118 -329h-49l-113 324h-244l-61 -324h-47zM194 706l-63 -339h187q56 0 96.5 5.5t68.5 20t44.5 41t24.5 68.5l12 62q8 42 3 69.5t-24 43.5
t-52.5 22.5t-81.5 6.5h-215zM370 806h-43l-44 134h59zM488 806h-41l-41 134h60z" />
    <glyph glyph-name="uni0211" unicode="&#x211;" horiz-adv-x="361" 
d="M352 514q-62 -5 -120.5 -33.5t-106.5 -76.5l-76 -404h-44l103 546h37l-12 -98q42 44 102 76t126 36zM211 606h-43l-44 134h59zM329 606h-41l-41 134h60z" />
    <glyph glyph-name="uni0212" unicode="&#x212;" horiz-adv-x="632" 
d="M156 750h260q50 0 90.5 -7.5t67 -29t36 -60.5t-2.5 -102l-10 -51q-9 -46 -24.5 -76.5t-38.5 -50t-53.5 -29.5t-69.5 -15l118 -329h-49l-113 324h-244l-61 -324h-47zM194 706l-63 -339h187q56 0 96.5 5.5t68.5 20t44.5 41t24.5 68.5l12 62q8 42 3 69.5t-24 43.5
t-52.5 22.5t-81.5 6.5h-215zM419 944q28 0 48 -10.5t32 -29.5t16 -44t0 -54h-36q6 46 -8.5 73t-54.5 27t-67.5 -27.5t-38.5 -72.5h-39q7 29 20 54.5t31.5 44t43 29t53.5 10.5z" />
    <glyph glyph-name="uni0213" unicode="&#x213;" horiz-adv-x="361" 
d="M352 514q-62 -5 -120.5 -33.5t-106.5 -76.5l-76 -404h-44l103 546h37l-12 -98q42 44 102 76t126 36zM265 744q28 0 48 -10.5t32 -29.5t16 -44t0 -54h-36q6 46 -8.5 73t-54.5 27t-67.5 -27.5t-38.5 -72.5h-39q7 29 20 54.5t31.5 44t43 29t53.5 10.5z" />
    <glyph glyph-name="uni0214" unicode="&#x214;" horiz-adv-x="706" 
d="M198 750l-88 -469q-25 -131 17.5 -190t159.5 -59q118 0 184 61t92 195l87 462h46l-89 -473q-14 -74 -39 -128.5t-63.5 -90.5t-92.5 -53.5t-125 -17.5q-143 0 -198 71.5t-27 218.5l89 473h47zM405 806h-43l-44 134h59zM523 806h-41l-41 134h60z" />
    <glyph glyph-name="uni0215" unicode="&#x215;" horiz-adv-x="557" 
d="M148 546l-73 -391q-5 -28 -4.5 -50.5t10 -38.5t29 -25t52.5 -9q51 0 111.5 22.5t112.5 57.5l82 434h44l-102 -546h-38l6 67q-19 -13 -44 -26.5t-53.5 -25t-59.5 -18.5t-61 -7q-84 0 -114.5 40.5t-16.5 118.5l75 397h44zM291 606h-43l-44 134h59zM409 606h-41l-41 134h60z
" />
    <glyph glyph-name="uni0216" unicode="&#x216;" horiz-adv-x="706" 
d="M198 750l-88 -469q-25 -131 17.5 -190t159.5 -59q118 0 184 61t92 195l87 462h46l-89 -473q-14 -74 -39 -128.5t-63.5 -90.5t-92.5 -53.5t-125 -17.5q-143 0 -198 71.5t-27 218.5l89 473h47zM452 944q28 0 48 -10.5t32 -29.5t16 -44t0 -54h-36q6 46 -8.5 73t-54.5 27
t-67.5 -27.5t-38.5 -72.5h-39q7 29 20 54.5t31.5 44t43 29t53.5 10.5z" />
    <glyph glyph-name="uni0217" unicode="&#x217;" horiz-adv-x="557" 
d="M148 546l-73 -391q-5 -28 -4.5 -50.5t10 -38.5t29 -25t52.5 -9q51 0 111.5 22.5t112.5 57.5l82 434h44l-102 -546h-38l6 67q-19 -13 -44 -26.5t-53.5 -25t-59.5 -18.5t-61 -7q-84 0 -114.5 40.5t-16.5 118.5l75 397h44zM339 744q28 0 48 -10.5t32 -29.5t16 -44t0 -54h-36
q6 46 -8.5 73t-54.5 27t-67.5 -27.5t-38.5 -72.5h-39q7 29 20 54.5t31.5 44t43 29t53.5 10.5z" />
    <glyph glyph-name="uni0218" unicode="&#x218;" horiz-adv-x="553" 
d="M481 202q-9 -46 -26 -84.5t-48.5 -67t-82 -44.5t-125.5 -16q-51 0 -106 8t-108 29l9 47q61 -25 115 -32.5t101 -7.5q95 0 151 38t73 129q7 34 4.5 57t-15.5 38.5t-37.5 26.5t-62.5 22l-114 33q-80 23 -106 70.5t-10 124.5q10 52 30 87.5t52.5 57.5t78.5 32t106 10
q99 0 173 -23l-8 -40q-38 11 -82.5 15.5t-83.5 4.5q-49 0 -86.5 -6.5t-64.5 -24t-45 -47t-27 -75.5q-11 -59 9.5 -92.5t85.5 -52.5l111 -32q47 -14 77.5 -30t46.5 -37t19 -50t-4 -68zM198 -56h57l-92 -177h-39z" />
    <glyph glyph-name="uni0219" unicode="&#x219;" horiz-adv-x="449" 
d="M367 144q-7 -34 -20.5 -62.5t-39 -48.5t-64.5 -31.5t-96 -11.5q-15 0 -35.5 1.5t-43 5t-45 9t-41.5 14.5l8 43q47 -19 88 -25.5t74 -6.5q44 0 74.5 8.5t50 24t30 36.5t15.5 45q4 21 4.5 37.5t-9 30t-32 25t-65.5 22.5l-47 12q-41 10 -66 24.5t-37 33.5t-13.5 42t3.5 52
q7 38 25.5 64t45.5 42t61.5 23t75.5 7q40 0 76.5 -5.5t61.5 -15.5l-7 -38q-32 9 -63 14t-71 5q-75 0 -113.5 -25.5t-47.5 -74.5q-4 -21 -4.5 -37t8.5 -29.5t30 -24.5t59 -21l47 -12q45 -11 71.5 -25t40 -32t15.5 -41.5t-4 -53.5zM141 -56h57l-92 -177h-39z" />
    <glyph glyph-name="uni021A" unicode="&#x21a;" horiz-adv-x="595" 
d="M89 750h546l-9 -45h-244l-133 -705h-47l133 705h-255zM185 -56h57l-92 -177h-39z" />
    <glyph glyph-name="uni021B" unicode="&#x21b;" horiz-adv-x="359" 
d="M181 505l-69 -366q-6 -33 -6 -54t8 -33t23 -16.5t39 -4.5q23 0 49.5 5t49.5 17l-8 -41q-18 -11 -45 -16.5t-56 -5.5q-66 0 -90 32t-11 100l72 383h-97l8 41h97l24 132l48 18l-28 -150h177l-7 -41h-178zM72 -56h57l-92 -177h-39z" />
    <glyph glyph-name="uni021C" unicode="&#x21c;" horiz-adv-x="518" 
d="M140 377l8 42l89 8q118 11 171.5 59t53.5 129q0 26 -8.5 45.5t-29.5 32.5t-56.5 19.5t-89.5 6.5q-16 0 -37 -1.5t-45 -5t-48.5 -9t-47.5 -13.5l9 41q39 14 90 21.5t97 7.5q110 0 161 -37.5t51 -106.5q0 -65 -34 -116.5t-106 -81.5q57 -16 78 -49t21 -73
q0 -70 -26.5 -120.5t-70.5 -85t-100 -56t-116 -34t-118 -19t-106 -10.5l10 48q51 4 106.5 10.5t109 18.5t101 31t84 48t57.5 69t21 94q0 30 -11 49.5t-29 31t-40.5 16.5t-44.5 8q-29 -7 -67 -10z" />
    <glyph glyph-name="uni021D" unicode="&#x21d;" horiz-adv-x="457" 
d="M68 179l8 41l89 10q118 13 172.5 60t54.5 128q0 27 -9.5 47t-30.5 33t-55.5 19t-84.5 6q-16 0 -37.5 -1.5t-46.5 -5.5t-50.5 -9.5t-48.5 -13.5l8 42q40 14 91 21.5t97 7.5q112 0 162 -37t50 -104q0 -64 -34.5 -116.5t-109.5 -84.5q59 -16 81 -49t22 -73q0 -72 -27 -122.5
t-72 -85.5t-101.5 -56t-116.5 -33t-117 -17t-102 -8l10 46q88 5 174 18.5t154 43t110 79.5t42 130q0 31 -12 50.5t-30.5 30.5t-41.5 16t-45 7q-15 -3 -31.5 -5.5t-33.5 -4.5z" />
    <glyph glyph-name="uni021E" unicode="&#x21e;" horiz-adv-x="686" 
d="M531 0h-46l70 373h-423l-70 -373h-47l141 750h47l-63 -333h423l63 333h45zM331 944h40l52 -110l97 110h45l-124 -148h-45z" />
    <glyph glyph-name="uni021F" unicode="&#x21f;" horiz-adv-x="555" 
d="M368 0l71 378q6 29 8 54.5t-5.5 44.5t-27.5 30t-58 11q-51 0 -107.5 -20.5t-115.5 -55.5l-84 -442h-44l142 757l49 17l-55 -288q21 13 47.5 26.5t55 24t58.5 17t59 6.5q81 0 111 -41.5t16 -119.5l-75 -399h-45zM294 944h40l52 -110l97 110h45l-124 -148h-45z" />
    <glyph glyph-name="uni0220" unicode="&#x220;" horiz-adv-x="665" 
d="M460 -216l140 747q8 42 9.5 75.5t-9 57.5t-35 37t-68.5 13q-58 0 -140 -23t-181 -77l-114 -614h-47l140 750h40l-11 -88q77 41 160 70.5t163 29.5q51 0 83 -15.5t48.5 -43.5t19 -67t-6.5 -86l-144 -766h-47z" />
    <glyph glyph-name="uni0221" unicode="&#x221;" horiz-adv-x="664" 
d="M403 71q-76 -51 -138 -66t-108 -15q-44 0 -73 14.5t-45.5 40.5t-20.5 61t4 76l32 169q11 60 33.5 100t55 64.5t73.5 34.5t89 10q21 0 45.5 -3.5t48 -9t43.5 -13t32 -16.5l45 239l49 17l-124 -656q-2 -8 -3 -17t-1 -19q26 17 53 27t53 10q25 0 41.5 -7t27 -18t15 -25.5
t4.5 -29.5q0 -23 -10 -41.5t-26.5 -31t-37.5 -19t-44 -6.5q-42 0 -68.5 22t-37.5 53q-26 -24 -50 -53.5t-45 -61.5h-47q29 43 63 83t72 71q-1 9 0 16zM467 478q-11 8 -30 15.5t-41.5 13t-46.5 9t-45 3.5q-44 0 -79 -9.5t-60.5 -31.5t-43 -57.5t-26.5 -87.5l-28 -153
q-16 -84 13 -117t94 -33q28 0 58 6.5t59.5 17t56 24.5t49.5 29zM540 82q-24 0 -49 -10.5t-49 -28.5q5 -27 22 -46t53 -19t57.5 15.5t21.5 43.5q0 24 -14.5 34.5t-41.5 10.5z" />
    <glyph glyph-name="uni0222" unicode="&#x222;" horiz-adv-x="558" 
d="M417 761q66 -11 103.5 -47.5t37.5 -100.5q0 -83 -48.5 -137.5t-144.5 -95.5q40 -12 66 -28.5t41.5 -35.5t21.5 -40.5t6 -44.5q0 -53 -18.5 -97t-54.5 -76t-90 -50t-125 -18q-112 0 -167 43.5t-55 115.5q0 91 53 148t162 87q-63 18 -93 56t-30 90q0 48 16 87t44 68t66 48
t83 28l-8 -43q-32 -7 -60.5 -21.5t-49.5 -37t-33 -54.5t-12 -75q0 -50 31.5 -77.5t89.5 -40.5l68 -15l52 25q31 15 57.5 32t45.5 39t29.5 51.5t10.5 68.5q0 48 -26 73t-77 35zM260 365l-41 -12q-39 -11 -72.5 -28t-57.5 -41t-37.5 -56t-13.5 -75q0 -34 15 -57t40 -37.5
t57 -20.5t67 -6q43 0 85.5 10.5t76 33.5t54.5 60.5t21 91.5q0 21 -7.5 40t-25 35.5t-46.5 30t-73 22.5z" />
    <glyph glyph-name="uni0223" unicode="&#x223;" horiz-adv-x="515" 
d="M248 378l-43 -16q-38 -14 -68.5 -32t-53 -42.5t-34.5 -56.5t-12 -74q0 -33 13 -56.5t35 -39t51 -23t62 -7.5q43 0 83.5 13t71.5 39.5t50 66t19 92.5q0 41 -28 71t-105 53zM403 773q57 -13 89.5 -49t32.5 -96q0 -45 -12 -80.5t-35.5 -64t-58 -51t-80.5 -42.5
q71 -27 100 -63t29 -84q0 -50 -18.5 -95.5t-53.5 -80.5t-85.5 -56t-114.5 -21q-102 0 -154 45.5t-52 114.5q0 91 51 151t156 95q-115 46 -115 146q0 50 16.5 89.5t43.5 68.5t62.5 47t74.5 25l-8 -41q-63 -13 -103.5 -60t-40.5 -124q0 -49 29 -78.5t80 -45.5l55 -17l57 26
q30 13 54.5 31t42 41.5t27.5 54t10 69.5q0 45 -22 70t-65 36z" />
    <glyph glyph-name="uni0224" unicode="&#x224;" horiz-adv-x="605" 
d="M148 158l-102 -114h464l-8 -44l-5 -25q-7 -36 -17.5 -62t-28 -42.5t-42.5 -24.5t-61 -8q-19 0 -36.5 3t-25.5 7l7 38q11 -3 24.5 -5.5t32.5 -2.5q28 0 46 6t29.5 19.5t18.5 35t13 51.5l2 10h-479l6 37l476 555l102 114h-437l8 44h496l-7 -37z" />
    <glyph glyph-name="uni0225" unicode="&#x225;" horiz-adv-x="460" 
d="M120 148q-14 -15 -25.5 -28l-23 -26t-23.5 -26t-27 -29h352l-6 -39l-5 -25q-7 -36 -18 -62t-28.5 -42.5t-42.5 -24.5t-59 -8q-18 0 -36.5 3t-27.5 7l7 38q11 -3 24.5 -5.5t33.5 -2.5q27 0 45 6t30 19.5t19 34.5t13 52l2 10h-364l5 32l351 390q24 26 42.5 46.5t37.5 38.5
h-330l8 39h382l-6 -32z" />
    <glyph glyph-name="uni0226" unicode="&#x226;" horiz-adv-x="644" 
d="M564 0h-48l-47 231h-350l-129 -231h-50l423 750h45zM461 275l-53 270l-27 157q-14 -25 -24.5 -44.5t-20 -37.5t-20 -36.5t-22.5 -40.5l-149 -268h316zM384 908h61l-13 -71h-61z" />
    <glyph glyph-name="uni0227" unicode="&#x227;" horiz-adv-x="513" 
d="M336 0l8 68q-17 -11 -41.5 -24.5t-54.5 -25.5t-63.5 -20t-67.5 -8q-70 0 -100 38t-15 119l5 26q8 45 28.5 73.5t51.5 44.5t71.5 21.5t89.5 5.5h140l11 58q6 32 8 58.5t-7.5 45t-34.5 29t-72 10.5q-35 0 -80.5 -7.5t-88.5 -23.5l8 42q45 16 87.5 23t81.5 7q58 0 90 -14.5
t46 -39.5t13 -59t-9 -74l-68 -373h-37zM381 279h-132q-44 0 -78 -4.5t-58.5 -17t-40 -35t-22.5 -57.5l-4 -20q-11 -60 9 -87.5t70 -27.5q30 0 62 7.5t62.5 18.5t56.5 25t44 28zM287 708h61l-13 -71h-61z" />
    <glyph glyph-name="uni0228" unicode="&#x228;" horiz-adv-x="573" 
d="M204 -262q-19 0 -40 1.5t-41 5.5l8 41q14 -2 34 -4t38 -2q32 0 51 5t30 12.5t15 17.5t6 21l2 11q2 12 1.5 22t-9 17t-28 11t-55.5 4h-15l19 99h-205l141 750h432l-9 -45h-385l-55 -292h353l-8 -43h-353l-61 -325h402l-7 -45h-198l-11 -59q65 -4 84.5 -28t11.5 -68l-2 -11
q-6 -31 -19 -49.5t-31.5 -29t-43 -14t-52.5 -3.5z" />
    <glyph glyph-name="uni0229" unicode="&#x229;" horiz-adv-x="530" 
d="M156 -262q-19 0 -40 1.5t-41 5.5l8 41q14 -2 34 -4t38 -2q32 0 51 5t30 12.5t15 17.5t6 21l2 11q2 12 1.5 22t-9 17t-28 11t-55.5 4h-15l17 92q-99 13 -130.5 75.5t-10.5 172.5l11 58q13 72 39 122t61 80.5t78 44.5t91 14t84 -13.5t58 -43t28 -77.5t-6 -117l-8 -44h-387
l-6 -31q-12 -63 -6.5 -102.5t27.5 -62t60 -30.5t92 -8q29 0 64.5 5.5t71.5 19.5l-8 -40q-33 -14 -73.5 -20t-74.5 -6h-8l-9 -49q65 -4 84.5 -28t11.5 -68l-2 -11q-6 -31 -19 -49.5t-31.5 -29t-43 -14t-52.5 -3.5zM432 313q20 102 -7 154.5t-121 52.5q-38 0 -73 -12
t-64.5 -37t-50.5 -64.5t-30 -93.5l-2 -11h346z" />
    <glyph glyph-name="uni022A" unicode="&#x22a;" 
d="M648 313q-31 -162 -121.5 -243.5t-238.5 -81.5q-146 0 -209 87.5t-33 249.5l22 114q31 161 123 242t238 81t208.5 -86t31.5 -249zM623 426q28 147 -22.5 219.5t-177.5 72.5q-125 0 -204 -72.5t-107 -219.5l-19 -102q-28 -148 23.5 -220t176.5 -72q122 0 202 72t108 220z
M346 894h62l-16 -83h-62zM504 894h62l-16 -83h-62zM345 1011h266l-7 -40h-266z" />
    <glyph glyph-name="uni022B" unicode="&#x22b;" horiz-adv-x="569" 
d="M490 239q-23 -121 -95.5 -185t-184.5 -64q-111 0 -158 67.5t-24 188.5l13 69q23 121 95 183t183 62q112 0 159.5 -65.5t24.5 -186.5zM459 310q18 102 -17 155.5t-129 53.5q-44 0 -82 -13.5t-68 -40t-50.5 -65.5t-29.5 -90l-12 -70q-18 -98 16 -153.5t127 -55.5
q95 0 154.5 55t77.5 154zM235 694h62l-16 -83h-62zM393 694h62l-16 -83h-62zM232 804h266l-7 -40h-266z" />
    <glyph glyph-name="uni022C" unicode="&#x22c;" 
d="M648 313q-31 -162 -121.5 -243.5t-238.5 -81.5q-146 0 -209 87.5t-33 249.5l22 114q31 161 123 242t238 81t208.5 -86t31.5 -249zM623 426q28 147 -22.5 219.5t-177.5 72.5q-125 0 -204 -72.5t-107 -219.5l-19 -102q-28 -148 23.5 -220t176.5 -72q122 0 202 72t108 220z
M502 803q-23 0 -37.5 12t-26 26t-22.5 26t-26 12t-30.5 -16.5t-24.5 -58.5h-41q11 51 37 83t64 32q21 0 35 -12t25 -26t22 -26t27 -12q22 0 34.5 16.5t23.5 60.5h39q-5 -23 -12 -44t-18.5 -37.5t-28 -26t-40.5 -9.5zM345 1011h266l-7 -40h-266z" />
    <glyph glyph-name="uni022D" unicode="&#x22d;" horiz-adv-x="569" 
d="M490 239q-23 -121 -95.5 -185t-184.5 -64q-111 0 -158 67.5t-24 188.5l13 69q23 121 95 183t183 62q112 0 159.5 -65.5t24.5 -186.5zM459 310q18 102 -17 155.5t-129 53.5q-44 0 -82 -13.5t-68 -40t-50.5 -65.5t-29.5 -90l-12 -70q-18 -98 16 -153.5t127 -55.5
q95 0 154.5 55t77.5 154zM391 597q-23 0 -37.5 12t-26 26t-22.5 26t-26 12t-30.5 -16.5t-24.5 -58.5h-41q11 51 37 83t64 32q21 0 35 -12t25 -26t22 -26t27 -12q22 0 34.5 16.5t23.5 60.5h39q-5 -23 -12 -44t-18.5 -37.5t-28 -26t-40.5 -9.5zM232 804h266l-7 -40h-266z" />
    <glyph glyph-name="uni022E" unicode="&#x22e;" 
d="M648 313q-31 -162 -121.5 -243.5t-238.5 -81.5q-146 0 -209 87.5t-33 249.5l22 114q31 161 123 242t238 81t208.5 -86t31.5 -249zM623 426q28 147 -22.5 219.5t-177.5 72.5q-125 0 -204 -72.5t-107 -219.5l-19 -102q-28 -148 23.5 -220t176.5 -72q122 0 202 72t108 220z
M428 908h61l-13 -71h-61z" />
    <glyph glyph-name="uni022F" unicode="&#x22f;" horiz-adv-x="569" 
d="M490 239q-23 -121 -95.5 -185t-184.5 -64q-111 0 -158 67.5t-24 188.5l13 69q23 121 95 183t183 62q112 0 159.5 -65.5t24.5 -186.5zM459 310q18 102 -17 155.5t-129 53.5q-44 0 -82 -13.5t-68 -40t-50.5 -65.5t-29.5 -90l-12 -70q-18 -98 16 -153.5t127 -55.5
q95 0 154.5 55t77.5 154zM317 708h61l-13 -71h-61z" />
    <glyph glyph-name="uni0230" unicode="&#x230;" 
d="M648 313q-31 -162 -121.5 -243.5t-238.5 -81.5q-146 0 -209 87.5t-33 249.5l22 114q31 161 123 242t238 81t208.5 -86t31.5 -249zM623 426q28 147 -22.5 219.5t-177.5 72.5q-125 0 -204 -72.5t-107 -219.5l-19 -102q-28 -148 23.5 -220t176.5 -72q122 0 202 72t108 220z
M425 902h61l-13 -71h-61zM345 1011h266l-7 -40h-266z" />
    <glyph glyph-name="uni0231" unicode="&#x231;" horiz-adv-x="569" 
d="M490 239q-23 -121 -95.5 -185t-184.5 -64q-111 0 -158 67.5t-24 188.5l13 69q23 121 95 183t183 62q112 0 159.5 -65.5t24.5 -186.5zM459 310q18 102 -17 155.5t-129 53.5q-44 0 -82 -13.5t-68 -40t-50.5 -65.5t-29.5 -90l-12 -70q-18 -98 16 -153.5t127 -55.5
q95 0 154.5 55t77.5 154zM313 698h61l-13 -71h-61zM233 804h266l-7 -40h-266z" />
    <glyph glyph-name="uni0232" unicode="&#x232;" horiz-adv-x="571" 
d="M293 310l-58 -310h-46l57 308l-172 442h47l107 -284q6 -16 11 -29.5t9.5 -27t10 -29t12.5 -36.5q12 18 22.5 33t20 29t20 28t23.5 32l206 284h56zM243 910h266l-7 -40h-266z" />
    <glyph glyph-name="uni0233" unicode="&#x233;" horiz-adv-x="509" 
d="M174 710h266l-7 -40h-266zM85 -216h-47l125 216l-114 546h47l67 -340l8.5 -42.5t7 -34.5t6.5 -36.5t8 -46.5q13 26 24 46t21 38t20.5 36t22.5 40l194 340h50z" />
    <glyph glyph-name="uni0234" unicode="&#x234;" horiz-adv-x="289" 
d="M96 189q25 6 55 6q61 0 89.5 -27t28.5 -67q0 -49 -31.5 -80t-90.5 -31q-21 0 -42 7.5t-37 23.5t-24.5 42t-4.5 64q-61 -40 -106 -127h-45q29 57 68.5 102t90.5 69l110 586l49 17zM150 158q-34 0 -62 -9v-2q-5 -25 -4 -47t8.5 -38t21.5 -25.5t37 -9.5q32 0 55.5 18
t23.5 52q0 24 -17.5 42.5t-62.5 18.5z" />
    <glyph glyph-name="uni0235" unicode="&#x235;" horiz-adv-x="631" 
d="M449 190q25 5 47 5q61 0 88 -27.5t27 -67.5q0 -49 -30.5 -79.5t-88.5 -30.5q-22 0 -42.5 7.5t-35 24.5t-21 44.5t-0.5 66.5q-71 -39 -120 -133h-45q30 60 73 106.5t100 69.5l38 201q6 29 8 55t-5 45t-27 30t-58 11q-94 0 -225 -76l-83 -442h-44l102 546h37l-6 -62
q22 13 48 27t55 24.5t60 17.5t61 7q80 0 110 -41.5t16 -119.5zM495 158q-28 0 -53 -6l-1 -5q-5 -25 -5.5 -47t5 -38.5t19 -26t36.5 -9.5q36 0 56 18.5t20 52.5q0 12 -3 23t-11 19.5t-23 13.5t-40 5z" />
    <glyph glyph-name="uni0236" unicode="&#x236;" horiz-adv-x="359" 
d="M40 505l8 41h97l24 132l48 18l-28 -150h177l-7 -41h-178l-60 -319q31 9 67 9q61 0 89.5 -27t28.5 -67q0 -49 -33 -80t-93 -31q-22 0 -43.5 7t-38.5 22t-27 39.5t-7 59.5q-52 -38 -94 -118h-45q27 54 63 96.5t84 68.5l65 340h-97zM187 158q-41 0 -74 -13q-9 -50 7.5 -84
t63.5 -34q32 0 57.5 18t25.5 52q0 24 -17.5 42.5t-62.5 18.5z" />
    <glyph glyph-name="uni0237" unicode="&#x237;" horiz-adv-x="201" 
d="M34 -106q-11 -59 -41 -86t-92 -27q-21 0 -43.5 3t-42.5 8l8 41q19 -5 37 -7.5t47 -2.5q38 0 57 18.5t27 60.5l121 644h45z" />
    <glyph glyph-name="uni0238" unicode="&#x238;" horiz-adv-x="925" 
d="M729 560q40 0 69.5 -13.5t47.5 -37.5t23.5 -57.5t-1.5 -73.5l-33 -176q-12 -63 -32.5 -104t-48.5 -65.5t-63.5 -34t-77.5 -9.5q-47 0 -94 16t-93 54l-15 -59h-28l7 64q-19 -12 -43.5 -25t-54 -24t-63.5 -18t-72 -7q-44 0 -73 14.5t-45.5 40.5t-20.5 61t4 76l32 169
q11 60 33.5 100t55 64.5t73.5 34.5t89 10q21 0 45.5 -3.5t48 -9t43.5 -13t32 -16.5l45 239l49 17l-55 -286q17 11 40 23.5t50 23.5t59 18t67 7zM467 478q-11 8 -30 15.5t-41.5 13t-46.5 9t-45 3.5q-44 0 -79 -9.5t-60.5 -31.5t-43 -57.5t-26.5 -87.5l-28 -153
q-16 -84 13 -117t94 -33q28 0 58 6.5t59.5 17t56 24.5t49.5 29zM440 94q18 -17 39.5 -29t44 -20t44.5 -12t41 -4q78 0 122 42.5t63 143.5l28 148q8 44 4 74t-18.5 48t-39 26t-55.5 8q-50 0 -99.5 -19t-108.5 -56z" />
    <glyph glyph-name="uni0239" unicode="&#x239;" horiz-adv-x="936" 
d="M157 -10q-44 0 -73 14.5t-45.5 40.5t-20.5 61t4 76l32 169q11 60 33.5 100t54.5 64.5t72.5 34.5t88.5 10q26 0 51.5 -4.5t48.5 -12t42 -17t31 -19.5l12 39h29l-6 -58q19 12 43.5 24.5t52.5 23t60 17.5t67 7q42 0 73 -13.5t49.5 -37.5t24.5 -58t-2 -74l-34 -175
q-12 -62 -33 -103t-51.5 -65.5t-70.5 -34.5t-91 -10q-42 0 -88 10t-84 27l-45 -242h-45l50 267q-39 -23 -99.5 -42t-130.5 -19zM465 468q-27 21 -72 36t-93 15q-43 0 -76.5 -10t-59 -32t-43 -57.5t-26.5 -86.5l-27 -144q-17 -89 11 -124t93 -35q27 0 57 5t60 14t57.5 20.5
t48.5 25.5zM720 519q-53 0 -109 -21.5t-106 -53.5l-70 -378q37 -19 83 -28t87 -9q45 0 78 10.5t56 33t38.5 58t25.5 85.5l29 146q9 45 4.5 75t-19.5 48.5t-39.5 26t-57.5 7.5z" />
    <glyph glyph-name="uni023A" unicode="&#x23a;" horiz-adv-x="691" 
d="M439 599l128 193h44l-161 -243l114 -549h-48l-47 231h-229l-181 -274h-44l181 274h-77l-129 -231h-50l423 750h45zM225 275l182 275q-4 20 -7 37.5l-6 35t-6 36.5t-7 43q-14 -25 -24.5 -44.5t-20 -37.5t-20 -36.5t-22.5 -40.5l-149 -268h80zM417 499l-148 -224h192z" />
    <glyph glyph-name="uni023B" unicode="&#x23b;" horiz-adv-x="600" 
d="M8 -43l72 110q-33 44 -39 108.5t10 147.5l25 134q16 86 46.5 144t75.5 93.5t103.5 50.5t131.5 15q28 0 53 -1.5t48 -5.5l26 39h44l-31 -47q9 -2 17 -4.5t16 -5.5l-8 -40q-25 8 -50 12l-415 -627q26 -23 67 -35t103 -12q42 0 90 6t97 23l-8 -43q-24 -9 -51.5 -14.5t-54 -9
t-49 -4.5t-37.5 -1q-63 0 -108.5 12.5t-75.5 37.5l-54 -83h-44zM95 306q-11 -60 -9.5 -110t23.5 -86l399 603q-18 2 -38.5 3t-43.5 1q-134 0 -208 -65t-98 -204z" />
    <glyph glyph-name="uni023C" unicode="&#x23c;" horiz-adv-x="478" 
d="M451 499q-20 7 -48 13l-297 -448q39 -33 127 -33q30 0 67 5.5t77 20.5l-8 -41q-35 -15 -74.5 -20.5t-74.5 -5.5q-92 0 -139 35l-45 -68h-43l62 94q-48 61 -24 193l15 81q12 69 38 114.5t62 72.5t81.5 37.5t97.5 10.5q17 0 33 -1.5t30 -3.5l39 59h44l-44 -66q9 -2 16.5 -5
t14.5 -5zM74 234q-18 -92 8 -141l281 424q-10 1 -20.5 1.5t-21.5 0.5q-100 0 -156.5 -49t-75.5 -152z" />
    <glyph glyph-name="uni023D" unicode="&#x23d;" horiz-adv-x="551" 
d="M209 750l-62 -325h208l-8 -42h-208l-63 -338h385l-8 -45h-432l72 383h-83l8 42h83l61 325h47z" />
    <glyph glyph-name="uni023E" unicode="&#x23e;" horiz-adv-x="595" 
d="M89 750h431l28 42h44l-28 -42h71l-9 -45h-91l-214 -324l-72 -381h-47l53 282l-215 -325h-44l277 419l62 329h-255zM338 475l152 230h-108z" />
    <glyph glyph-name="uni023F" unicode="&#x23f;" horiz-adv-x="449" 
d="M367 144q-7 -34 -20.5 -62.5t-39 -48.5t-64.5 -31.5t-96 -11.5q-13 0 -30 1.5t-37 3.5q9 -9 19 -21t24 -28q23 -27 45.5 -43.5t47 -24.5t51.5 -10.5t60 -2.5l-7 -38q-29 0 -59 3t-59.5 12.5t-57.5 29t-53 52.5q-18 24 -32 39.5t-25.5 25.5t-20.5 15.5t-17 9.5l-14 6l8 43
q47 -19 88 -25.5t74 -6.5q44 0 74.5 8.5t50 24t30 36.5t15.5 45q4 21 4.5 37.5t-9 30t-32 25t-65.5 22.5l-47 12q-41 10 -66 24.5t-37 33.5t-13.5 42t3.5 52q7 38 25.5 64t45.5 42t61.5 23t75.5 7q40 0 76.5 -5.5t61.5 -15.5l-7 -38q-32 9 -63 14t-71 5q-75 0 -113.5 -25.5
t-47.5 -74.5q-4 -21 -4.5 -37t8.5 -29.5t30 -24.5t59 -21l47 -12q45 -11 71.5 -25t40 -32t15.5 -41.5t-4 -53.5z" />
    <glyph glyph-name="uni0240" unicode="&#x240;" horiz-adv-x="460" 
d="M11 30q20 -7 49.5 -23t74.5 -54q46 -39 97.5 -62.5t119.5 -21.5l-8 -42q-34 0 -64.5 5t-60.5 17.5t-62.5 34t-70.5 54.5q-37 32 -69.5 46t-56.5 16l5 32l351 390q24 26 42.5 46.5t37.5 38.5h-330l8 39h382l-6 -32l-330 -366q-28 -31 -54 -58.5t-55 -59.5z" />
    <glyph glyph-name="uni0241" unicode="&#x241;" horiz-adv-x="436" 
d="M120 203q7 37 17.5 63t27 48t41.5 43t62 47q30 21 55 43.5t42 47.5t26.5 54.5t9.5 65.5q0 22 -6.5 40t-23 31t-45 20t-73.5 7q-51 0 -98 -11.5t-90 -28.5l8 44q37 16 83 28t99 12q101 0 146 -37t45 -101q0 -50 -14 -89t-37 -69.5t-52.5 -54.5t-60.5 -45t-51.5 -40.5
t-34 -39.5t-21 -41.5t-12.5 -47.5l-36 -192h-46z" />
    <glyph glyph-name="uni0242" unicode="&#x242;" horiz-adv-x="390" 
d="M106 90q5 28 10.5 48t16 37.5t29.5 35.5t52 44q25 19 46.5 35t37.5 35.5t24.5 45.5t8.5 65q0 20 -5.5 35.5t-19 26.5t-37 16.5t-59.5 5.5q-45 0 -87 -11t-83 -28l7 40q32 15 76 27t93 12q72 0 115 -29t43 -95q0 -51 -12 -82.5t-31.5 -54t-45.5 -40t-53 -39.5
q-24 -19 -38.5 -33.5t-23.5 -29.5t-14 -33t-10 -45l-14 -79h-43z" />
    <glyph glyph-name="uni0243" unicode="&#x243;" horiz-adv-x="646" 
d="M73 193h-93l7 42h94l97 515h214q52 0 94.5 -6.5t70 -24t38.5 -49.5t1 -83l-10 -54q-5 -25 -14.5 -48.5t-27 -42.5t-44.5 -33t-68 -20q78 -8 109 -47t19 -97l-12 -70q-10 -54 -29.5 -88t-53 -53.5t-83 -26.5t-118.5 -7h-227zM154 369l-26 -134h193l-7 -42h-194l-28 -149
h179q55 0 95 5.5t67.5 20.5t43.5 42t24 71l11 59q5 30 0.5 53.5t-24 40t-56.5 25t-96 8.5h-182zM217 706l-56 -296h182q78 0 130 27t65 93l12 61q6 33 1.5 55.5t-24 35.5t-55 18.5t-89.5 5.5h-166z" />
    <glyph glyph-name="uni0244" unicode="&#x244;" horiz-adv-x="792" 
d="M260 750l-61 -325h452l61 325h46l-61 -325h85l-8 -42h-85l-20 -106q-14 -74 -39 -128.5t-63.5 -90.5t-92.5 -53.5t-125 -17.5q-143 0 -198 71.5t-27 218.5l20 106h-92l8 42h92l61 325h47zM349 32q118 0 184 61t92 195l18 95h-452l-19 -102q-25 -131 17.5 -190t159.5 -59z
" />
    <glyph glyph-name="uni0245" unicode="&#x245;" horiz-adv-x="638" 
d="M508 0l-102 538q-4 21 -7.5 39t-6.5 37t-5.5 40t-5.5 47q-13 -26 -24 -46.5t-21.5 -39.5t-20.5 -37.5t-22 -39.5l-301 -538h-52l425 750h46l147 -750h-50z" />
    <glyph glyph-name="uni0246" unicode="&#x246;" horiz-adv-x="575" 
d="M498 750l28 42h44l-28 -42h48l-9 -45h-69l-193 -292h175l-8 -43h-195l-215 -325h398l-7 -45h-421l-28 -43h-44l49 74l135 719h340zM141 413h134l193 292h-272zM88 129l159 241h-114z" />
    <glyph glyph-name="uni0247" unicode="&#x247;" horiz-adv-x="528" 
d="M268 265l-144 -217q23 -10 53 -13.5t68 -3.5q29 0 64.5 5.5t71.5 19.5l-8 -40q-33 -14 -73.5 -20t-74.5 -6q-80 0 -125 22l-36 -55h-43l49 74q-37 31 -46 83.5t5 126.5l11 58q13 72 39 122t61 80.5t78 44.5t91 14q29 0 53 -4.5t44 -15.5l49 74h44l-63 -94q31 -29 41 -80
t-4 -131l-8 -44h-197zM84 302h165l134 203q-30 15 -79 15q-38 0 -73 -12t-64.5 -37t-50.5 -64.5t-30 -93.5zM72 234q-12 -64 -6.5 -103.5t28.5 -61.5l130 196h-146zM432 313q12 60 8 102.5t-27 68.5l-121 -182h138z" />
    <glyph glyph-name="uni0248" unicode="&#x248;" horiz-adv-x="417" 
d="M373 750l-61 -325h105l-8 -42h-105l-42 -223q-9 -50 -25 -82.5t-39 -52t-55 -27.5t-74 -8q-32 0 -65.5 5t-51.5 10l9 45q29 -8 54 -11.5t57 -3.5q35 0 59.5 7.5t41.5 24t27.5 42.5t17.5 62l40 212h-177l8 42h177l61 325h46z" />
    <glyph glyph-name="uni0249" unicode="&#x249;" horiz-adv-x="252" 
d="M141 332h127l-9 -42h-126l-74 -396q-11 -59 -41 -86t-92 -27q-21 0 -43.5 3t-42.5 8l8 41q19 -5 37 -7.5t47 -2.5q38 0 57 18.5t27 60.5l73 388h-123l9 42h122l40 214h45zM204 675h-48l13 70h49z" />
    <glyph glyph-name="uni024A" unicode="&#x24a;" horiz-adv-x="698" 
d="M206 -10q-56 0 -92 18t-54 50.5t-20.5 76.5t7.5 95l52 267q15 75 43 126t67 82t88.5 44t108.5 13q71 0 130 -20t95 -48l16 49h36l-155 -794q-6 -34 -8 -59t4 -41t21.5 -23.5t44.5 -7.5q24 0 37 3t26 7l-7 -40q-14 -5 -32 -8t-38 -3q-27 0 -49.5 7t-36 25t-17 48.5
t5.5 78.5l25 130q-24 -14 -56.5 -27.5t-71 -24t-82 -17.5t-88.5 -7zM619 655q-35 26 -91 45t-122 19q-110 0 -173.5 -53.5t-88.5 -179.5l-50 -252q-22 -109 11.5 -154.5t121.5 -45.5q36 0 75 6.5t77 17.5t73 25.5t62 30.5z" />
    <glyph glyph-name="uni024B" unicode="&#x24b;" horiz-adv-x="568" 
d="M387 51q-39 -23 -99.5 -42t-130.5 -19q-44 0 -73 14.5t-45.5 40.5t-20.5 61t4 76l32 169q11 60 33.5 100t54.5 64.5t72.5 34.5t88.5 10q26 0 51.5 -4.5t48.5 -12t42 -17t31 -19.5l13 39h36l-118 -627q-5 -27 -6 -46.5t4 -32t18 -18t36 -5.5q19 0 32.5 2t25.5 5l-8 -38
q-11 -4 -27 -6.5t-30 -2.5q-59 0 -82 31t-9 107zM465 468q-27 21 -72 36t-93 15q-43 0 -76.5 -10t-59 -32t-43 -57.5t-26.5 -86.5l-27 -144q-17 -89 11 -124t93 -35q27 0 57 5t60 14t57.5 20.5t48.5 25.5z" />
    <glyph glyph-name="uni024C" unicode="&#x24c;" horiz-adv-x="639" 
d="M83 325h-88l8 42h88l72 383h260q50 0 90.5 -7.5t67 -29t36 -60.5t-2.5 -102l-10 -51q-9 -46 -24.5 -76.5t-38.5 -50t-53.5 -29.5t-69.5 -15l118 -329h-49l-113 324h-244l-61 -324h-47zM201 706l-63 -339h187q56 0 96.5 5.5t68.5 20t44.5 41t24.5 68.5l12 62q8 42 3 69.5
t-24 43.5t-52.5 22.5t-81.5 6.5h-215z" />
    <glyph glyph-name="uni024D" unicode="&#x24d;" horiz-adv-x="375" 
d="M366 514q-62 -5 -120.5 -33.5t-106.5 -76.5l-17 -87h183l-8 -42h-183l-51 -275h-44l52 275h-66l8 42h66l43 229h37l-12 -98q42 44 102 76t126 36z" />
    <glyph glyph-name="uni024E" unicode="&#x24e;" horiz-adv-x="559" 
d="M535 634h94l-8 -42h-117l-209 -282l-58 -310h-46l57 308l-111 284h-107l8 42h83l-45 116h47l43 -116h315l84 116h56zM273 344q12 18 22.5 33t20 29t20 28t23.5 32l91 126h-268l48 -126q6 -16 11 -29.5t9.5 -27t10 -29t12.5 -36.5z" />
    <glyph glyph-name="uni024F" unicode="&#x24f;" horiz-adv-x="520" 
d="M432 377h96l-8 -42h-112l-318 -551h-45l125 216l-71 335h-99l8 42h82l-36 169h46l33 -169h252l97 169h48zM198 41q14 26 25 47t21.5 40t21 37.5t22.5 40.5l73 129h-220l26 -129q4 -22 7.5 -40t7.5 -37t7.5 -40t8.5 -48z" />
    <glyph glyph-name="gravecomb" unicode="&#x300;" horiz-adv-x="565" 
d="M418 606h-47l-79 134h61z" />
    <glyph glyph-name="acutecomb" unicode="&#x301;" horiz-adv-x="565" 
d="M415 740h63l-125 -134h-50z" />
    <glyph glyph-name="uni0302" unicode="&#x302;" horiz-adv-x="565" 
d="M377 754h46l66 -148h-39l-53 110l-97 -110h-45z" />
    <glyph glyph-name="tildecomb" unicode="&#x303;" horiz-adv-x="565" 
d="M435 618q-23 0 -37.5 12t-26 26t-22.5 26t-26 12t-30.5 -16.5t-24.5 -58.5h-41q11 51 37 83t64 32q21 0 35 -12t25 -26t22 -26t27 -12q22 0 34.5 16.5t23.5 60.5h39q-5 -23 -12 -44t-18.5 -37.5t-28 -26t-40.5 -9.5z" />
    <glyph glyph-name="uni0304" unicode="&#x304;" horiz-adv-x="565" 
d="M256 710h266l-7 -40h-266z" />
    <glyph glyph-name="uni0306" unicode="&#x306;" horiz-adv-x="565" 
d="M369 606q-28 0 -48 10.5t-32 29.5t-16 44t0 54h36q-6 -46 8.5 -73t54.5 -27t67 27.5t38 72.5h40q-7 -29 -20 -54.5t-31.5 -44t-43 -29t-53.5 -10.5z" />
    <glyph glyph-name="uni0307" unicode="&#x307;" horiz-adv-x="565" 
d="M323 708h61l-13 -71h-61z" />
    <glyph glyph-name="uni0308" unicode="&#x308;" horiz-adv-x="565" 
d="M287 717h62l-16 -83h-62zM445 717h62l-16 -83h-62z" />
    <glyph glyph-name="hookabovecomb" unicode="&#x309;" horiz-adv-x="565" 
d="M306 594l4 27q2 12 5 19t9 13t16 11.5t26 13.5q26 14 38 23t12 32q0 13 -12 23t-50 10q-17 0 -37.5 -4t-40.5 -11l7 31q17 7 36.5 11.5t39.5 4.5q48 0 70 -17t22 -46q0 -22 -6.5 -35.5t-16.5 -21.5t-20.5 -13t-18.5 -9q-26 -14 -34 -21t-10 -19l-4 -22h-35z" />
    <glyph glyph-name="uni030A" unicode="&#x30a;" horiz-adv-x="565" 
d="M381 635q29 0 48.5 21.5t19.5 53.5q0 20 -11 32t-34 12q-29 0 -48.5 -21.5t-19.5 -53.5q0 -20 11 -32t34 -12zM409 788q35 0 55.5 -21.5t20.5 -52.5q0 -48 -31 -80.5t-79 -32.5q-34 0 -54.5 21.5t-20.5 52.5q0 48 30.5 80.5t78.5 32.5z" />
    <glyph glyph-name="uni030B" unicode="&#x30b;" horiz-adv-x="565" 
d="M465 740h57l-89 -134h-39zM325 740h60l-90 -134h-40z" />
    <glyph glyph-name="uni030C" unicode="&#x30c;" horiz-adv-x="574" 
d="M246 744h40l52 -110l97 110h45l-124 -148h-45z" />
    <glyph glyph-name="uni030F" unicode="&#x30f;" horiz-adv-x="565" 
d="M324 606h-43l-44 134h59zM442 606h-41l-41 134h60z" />
    <glyph glyph-name="uni0310" unicode="&#x310;" horiz-adv-x="565" 
d="M338 827h61l-14 -71h-61zM329 606q-28 0 -48 10.5t-32 29.5t-16 44t0 54h36q-6 -46 8 -73t55 -27q40 0 67 27.5t38 72.5h40q-7 -29 -20 -54.5t-32 -44t-43 -29t-53 -10.5z" />
    <glyph glyph-name="uni0311" unicode="&#x311;" horiz-adv-x="565" 
d="M354 744q28 0 48 -10.5t32 -29.5t16 -44t0 -54h-36q6 46 -8.5 73t-54.5 27t-67.5 -27.5t-38.5 -72.5h-39q7 29 20 54.5t31.5 44t43 29t53.5 10.5z" />
    <glyph glyph-name="uni0316" unicode="&#x316;" horiz-adv-x="565" 
d="M249 -208h-44l-76 134h57z" />
    <glyph glyph-name="uni0317" unicode="&#x317;" horiz-adv-x="565" 
d="M211 -74h62l-128 -134h-49z" />
    <glyph glyph-name="dotbelowcomb" unicode="&#x323;" horiz-adv-x="565" 
d="M210 -93h61l-14 -71h-61z" />
    <glyph glyph-name="uni0324" unicode="&#x324;" horiz-adv-x="565" 
d="M83 -93h64l-14 -76h-64zM243 -93h64l-14 -76h-64z" />
    <glyph glyph-name="uni0325" unicode="&#x325;" horiz-adv-x="565" 
d="M209 -198q28 0 47.5 21.5t19.5 53.5q0 20 -11 32t-34 12q-29 0 -48.5 -21.5t-19.5 -53.5q0 -20 11.5 -32t34.5 -12zM237 -45q34 0 54.5 -21.5t20.5 -52.5q0 -48 -30.5 -80.5t-78.5 -32.5q-35 0 -55.5 21.5t-20.5 52.5q0 48 31 80.5t79 32.5z" />
    <glyph glyph-name="uni0326" unicode="&#x326;" horiz-adv-x="565" 
d="M203 -56h57l-92 -177h-39z" />
    <glyph glyph-name="uni0327" unicode="&#x327;" horiz-adv-x="565" 
d="M203 -262q-19 0 -40 1.5t-41 5.5l8 41q14 -2 34 -4t38 -2q32 0 51 5t30 12.5t15 17.5t6 21l2 11q2 12 1.5 22t-9 17t-28 11t-55.5 4h-15l23 120h47l-15 -80q65 -4 84.5 -28t11.5 -68l-2 -11q-6 -31 -19 -49.5t-31.5 -29t-43 -14t-52.5 -3.5z" />
    <glyph glyph-name="uni0328" unicode="&#x328;" horiz-adv-x="565" 
d="M202 -222q-58 0 -86 24.5t-20 66.5l2 11q4 21 18 40.5t32.5 35.5t39.5 27.5t38 16.5h48q-21 -9 -42 -21.5t-38.5 -27.5t-30 -32.5t-15.5 -36.5l-1 -6q-2 -13 -0.5 -23.5t9.5 -17.5t23 -11t39 -4q14 0 34.5 2.5t29.5 5.5l-7 -39q-33 -11 -73 -11z" />
    <glyph glyph-name="uni032C" unicode="&#x32c;" horiz-adv-x="565" 
d="M84 -67h40l53 -110l97 110h44l-123 -148h-46z" />
    <glyph glyph-name="uni032D" unicode="&#x32d;" horiz-adv-x="565" 
d="M177 -70h45l66 -148h-39l-53 110l-97 -110h-45z" />
    <glyph glyph-name="uni032E" unicode="&#x32e;" horiz-adv-x="565" 
d="M195 -210q-28 0 -48 10.5t-32 29.5t-16 44t0 54h35q-5 -46 9 -73t55 -27q40 0 67 27.5t38 72.5h40q-7 -29 -20 -54.5t-32 -44t-43 -29t-53 -10.5z" />
    <glyph glyph-name="uni032F" unicode="&#x32f;" horiz-adv-x="565" 
d="M199 -75q28 0 48 -10.5t32 -29.5t16 -44t0 -54h-36q6 46 -8.5 73t-54.5 27t-67.5 -27.5t-38.5 -72.5h-40q7 29 20.5 54.5t32 44t43 29t53.5 10.5z" />
    <glyph glyph-name="uni0330" unicode="&#x330;" horiz-adv-x="565" 
d="M242 -197q-23 0 -37 12t-25.5 26t-22.5 26t-27 12q-15 0 -32 -16.5t-26 -58.5h-38q11 51 37 83t64 32q21 0 34.5 -12t24.5 -26t22 -26t28 -12q23 0 36 16.5t24 60.5h37q-5 -23 -12 -44t-18.5 -37.5t-28 -26t-40.5 -9.5z" />
    <glyph glyph-name="uni0331" unicode="&#x331;" horiz-adv-x="565" 
d="M88 -114h266l-7 -40h-266z" />
    <glyph glyph-name="uni0340" unicode="&#x340;" horiz-adv-x="565" 
d="M379 606h-47l-79 134h61z" />
    <glyph glyph-name="uni0341" unicode="&#x341;" horiz-adv-x="565" 
d="M373 740h63l-125 -134h-50z" />
    <glyph glyph-name="uni0342" unicode="&#x342;" horiz-adv-x="565" 
d="M396 618q-23 0 -37 12t-25 26t-22.5 26t-27.5 12q-15 0 -31.5 -16.5t-26.5 -58.5h-38q12 51 37.5 83t63.5 32q21 0 34.5 -12t25 -26t22.5 -26t28 -12q23 0 35.5 16.5t23.5 60.5h38q-5 -23 -12.5 -44t-19 -37.5t-28 -26t-40.5 -9.5z" />
    <glyph glyph-name="uni0400" unicode="&#x400;" horiz-adv-x="573" 
d="M588 750l-9 -45h-385l-55 -292h353l-8 -43h-353l-61 -325h402l-7 -45h-450l141 750h432zM440 806h-47l-79 134h61z" />
    <glyph glyph-name="uni0401" unicode="&#x401;" horiz-adv-x="573" 
d="M296 917h62l-16 -83h-62zM454 917h62l-16 -83h-62zM588 750l-9 -45h-385l-55 -292h353l-8 -43h-353l-61 -325h402l-7 -45h-450l141 750h432z" />
    <glyph glyph-name="uni0402" unicode="&#x402;" horiz-adv-x="704" 
d="M588 267q6 29 8 55t-5 45t-27 30t-58 11q-94 0 -221 -74l-63 -334h-47l133 705h-228l9 45h549l-9 -45h-274l-62 -329q22 13 47.5 26.5t53.5 24t57.5 17t59.5 6.5q80 0 110 -41.5t16 -119.5l-74 -395q-11 -59 -41 -86t-92 -27q-21 0 -43.5 3t-42.5 8l8 41q19 -5 37 -7.5
t47 -2.5q38 0 57 18.5t27 60.5z" />
    <glyph glyph-name="uni0403" unicode="&#x403;" horiz-adv-x="552" 
d="M62 0h-47l141 750h438l-8 -44h-391zM453 940h63l-125 -134h-50z" />
    <glyph glyph-name="uni0404" unicode="&#x404;" horiz-adv-x="598" 
d="M596 695q-33 11 -74 16.5t-98 5.5q-134 0 -208 -65t-98 -204l-9 -47h355l-8 -41h-354l-9 -54q-11 -60 -9 -110t23.5 -86.5t68 -56.5t125.5 -20q42 0 90 6t97 23l-8 -43q-24 -9 -51.5 -14.5t-54 -9t-49 -4.5t-37.5 -1q-85 0 -138.5 23.5t-80.5 66.5t-30.5 104.5
t10.5 138.5l25 134q16 86 46.5 144t75.5 93.5t103.5 50.5t131.5 15q53 0 97 -6t76 -19z" />
    <glyph glyph-name="uni0405" unicode="&#x405;" horiz-adv-x="553" 
d="M481 202q-9 -46 -26 -84.5t-48.5 -67t-82 -44.5t-125.5 -16q-51 0 -106 8t-108 29l9 47q61 -25 115 -32.5t101 -7.5q95 0 151 38t73 129q7 34 4.5 57t-15.5 38.5t-37.5 26.5t-62.5 22l-114 33q-80 23 -106 70.5t-10 124.5q10 52 30 87.5t52.5 57.5t78.5 32t106 10
q99 0 173 -23l-8 -40q-38 11 -82.5 15.5t-83.5 4.5q-49 0 -86.5 -6.5t-64.5 -24t-45 -47t-27 -75.5q-11 -59 9.5 -92.5t85.5 -52.5l111 -32q47 -14 77.5 -30t46.5 -37t19 -50t-4 -68z" />
    <glyph glyph-name="uni0406" unicode="&#x406;" horiz-adv-x="218" 
d="M62 0h-47l141 750h47z" />
    <glyph glyph-name="uni0407" unicode="&#x407;" horiz-adv-x="216" 
d="M62 0h-47l141 750h47zM98 917h62l-16 -83h-62zM256 917h62l-16 -83h-62z" />
    <glyph glyph-name="uni0408" unicode="&#x408;" horiz-adv-x="386" 
d="M373 750l-111 -590q-9 -50 -25 -82.5t-39 -52t-55 -27.5t-74 -8q-32 0 -65.5 5t-51.5 10l9 45q29 -8 54 -11.5t57 -3.5q35 0 59.5 7.5t41.5 24t27.5 42.5t17.5 62l109 579h46z" />
    <glyph glyph-name="uni0409" unicode="&#x409;" horiz-adv-x="1038" 
d="M612 706h-308l-81 -430q-26 -138 -85.5 -207t-167.5 -69h-13l7 41h13q85 0 132 61t69 179l88 469h400l-49 -261h134q65 0 111 -8t73.5 -28.5t36 -56.5t-1.5 -91l-22 -119q-12 -62 -35 -99t-56 -56.5t-76.5 -25t-96.5 -5.5h-205zM609 446l-76 -402h162q48 0 84 6.5
t60.5 22.5t40 43.5t23.5 69.5l21 114q9 48 3.5 76.5t-26.5 44t-60 20.5t-97 5h-135z" />
    <glyph glyph-name="uni040A" unicode="&#x40a;" horiz-adv-x="1027" 
d="M554 391h-418l-74 -391h-47l141 750h47l-59 -315h418l59 315h45l-59 -315h134q65 0 111 -8t73.5 -28.5t36 -56.5t-1.5 -91l-12 -65q-12 -62 -35 -99t-56 -56.5t-76.5 -25t-96.5 -5.5h-204zM599 392l-65 -348h161q48 0 84 6.5t60.5 22.5t40 43.5t23.5 69.5l11 60
q9 48 3.5 76.5t-26.5 44t-60 20.5t-97 5h-135z" />
    <glyph glyph-name="uni040B" unicode="&#x40b;" horiz-adv-x="704" 
d="M538 0l50 267q6 29 8 55t-5 45t-27 30t-58 11q-94 0 -221 -74l-63 -334h-47l133 705h-228l9 45h549l-9 -45h-274l-62 -329q22 13 47.5 26.5t53.5 24t57.5 17t59.5 6.5q80 0 110 -41.5t16 -119.5l-54 -289h-45z" />
    <glyph glyph-name="uni040C" unicode="&#x40c;" horiz-adv-x="611" 
d="M302 376l222 -376h-54l-210 357h-131l-67 -357h-47l141 750h47l-66 -349h129l310 349h60zM459 940h63l-125 -134h-50z" />
    <glyph glyph-name="uni040D" unicode="&#x40d;" horiz-adv-x="689" 
d="M156 750h47l-129 -684q23 35 52.5 72.5t66.5 82.5l429 529h52l-141 -750h-46l129 686q-30 -45 -60 -81.5t-62 -75.5l-426 -529h-53zM467 806h-47l-79 134h61z" />
    <glyph glyph-name="uni040E" unicode="&#x40e;" horiz-adv-x="514" 
d="M131 -12h-52l121 208l-112 553h53l65 -340q4 -22 7.5 -40t7.5 -36t7.5 -39t7.5 -48q15 27 26.5 47.5t21.5 39t20 36.5t22 40l196 340h52zM329 806q-28 0 -48 10.5t-32 29.5t-16 44t0 54h36q-6 -46 8.5 -73t54.5 -27t67 27.5t38 72.5h40q-7 -29 -20 -54.5t-31.5 -44
t-43 -29t-53.5 -10.5z" />
    <glyph glyph-name="uni040F" unicode="&#x40f;" horiz-adv-x="676" 
d="M520 0h-230l-28 -154h-46l28 154h-229l141 750h47l-133 -706h412l133 706h46z" />
    <glyph glyph-name="uni0410" unicode="&#x410;" horiz-adv-x="644" 
d="M564 0h-48l-47 231h-350l-129 -231h-50l423 750h45zM461 275l-53 270l-27 157q-14 -25 -24.5 -44.5t-20 -37.5t-20 -36.5t-22.5 -40.5l-149 -268h316z" />
    <glyph glyph-name="uni0411" unicode="&#x411;" horiz-adv-x="622" 
d="M523 186q-12 -63 -35.5 -100t-57 -56t-76.5 -24.5t-95 -5.5h-244l141 750h433l-8 -44h-386l-48 -255h173q65 0 111.5 -8t74 -29.5t35.5 -58t-3 -93.5zM268 44q48 0 83.5 6.5t60.5 22.5t40.5 43.5t23.5 69.5l18 87q8 42 2.5 68.5t-27.5 41t-61 20t-97 5.5h-171l-70 -364
h198z" />
    <glyph glyph-name="uni0412" unicode="&#x412;" horiz-adv-x="624" 
d="M156 750h214q52 0 94.5 -6.5t70 -24t38.5 -49.5t1 -83l-10 -54q-5 -25 -14.5 -48.5t-27 -42.5t-44.5 -33t-68 -20q78 -8 109 -47t19 -97l-12 -70q-10 -54 -29.5 -88t-53 -53.5t-83 -26.5t-118.5 -7h-227zM132 369l-62 -325h179q55 0 95 5.5t67.5 20.5t43.5 42t24 71
l11 59q5 30 0.5 53.5t-24 40t-56.5 25t-96 8.5h-182zM195 706l-56 -296h182q78 0 130 27t65 93l12 61q6 33 1.5 55.5t-24 35.5t-55 18.5t-89.5 5.5h-166z" />
    <glyph glyph-name="uni0413" unicode="&#x413;" horiz-adv-x="552" 
d="M62 0h-47l141 750h438l-8 -44h-391z" />
    <glyph glyph-name="uni0414" unicode="&#x414;" 
d="M593 -154h-46l29 154h-570l-29 -154h-47l38 198h17q37 0 68.5 19t56 51.5t42 75.5t26.5 91l91 469h406l-135 -706h90zM234 325q-11 -56 -24 -100t-29.5 -78.5t-38 -59.5t-48.5 -43h399l127 662h-312z" />
    <glyph glyph-name="uni0415" unicode="&#x415;" horiz-adv-x="573" 
d="M588 750l-9 -45h-385l-55 -292h353l-8 -43h-353l-61 -325h402l-7 -45h-450l141 750h432z" />
    <glyph glyph-name="uni0416" unicode="&#x416;" horiz-adv-x="854" 
d="M382 0h-46l67 357h-74l-321 -357h-63l347 382l-173 368h53l160 -349h80l65 349h46l-66 -349h77l293 349h58l-321 -379l199 -371h-59l-187 357h-68z" />
    <glyph glyph-name="uni0417" unicode="&#x417;" horiz-adv-x="581" 
d="M193 409h88q95 0 152.5 50t57.5 149q0 24 -5.5 44t-22.5 34.5t-48 22.5t-81 8q-47 0 -98 -9.5t-96 -26.5l9 45q19 7 42.5 13.5t48.5 11.5t51 8t51 3q55 0 93 -10.5t61 -30.5t33 -48t10 -63q0 -36 -9 -72.5t-30 -67t-55.5 -53.5t-84.5 -32q130 -21 130 -133
q0 -125 -72.5 -194.5t-220.5 -69.5q-64 0 -117.5 11.5t-86.5 25.5l9 44q40 -16 93 -27t106 -11q112 0 177 53t65 165q0 33 -13.5 55t-37 35.5t-55 19t-67.5 5.5h-86z" />
    <glyph glyph-name="uni0418" unicode="&#x418;" horiz-adv-x="689" 
d="M156 750h47l-129 -684q23 35 52.5 72.5t66.5 82.5l429 529h52l-141 -750h-46l129 686q-30 -45 -60 -81.5t-62 -75.5l-426 -529h-53z" />
    <glyph glyph-name="uni0419" unicode="&#x419;" horiz-adv-x="689" 
d="M156 750h47l-129 -684q23 35 52.5 72.5t66.5 82.5l429 529h52l-141 -750h-46l129 686q-30 -45 -60 -81.5t-62 -75.5l-426 -529h-53zM432 806q-28 0 -48 10.5t-32 29.5t-16 44t0 54h36q-6 -46 8.5 -73t54.5 -27t67 27.5t38 72.5h40q-7 -29 -20 -54.5t-31.5 -44t-43 -29
t-53.5 -10.5z" />
    <glyph glyph-name="uni041A" unicode="&#x41a;" horiz-adv-x="611" 
d="M302 376l222 -376h-54l-210 357h-131l-67 -357h-47l141 750h47l-66 -349h129l310 349h60z" />
    <glyph glyph-name="uni041B" unicode="&#x41b;" horiz-adv-x="693" 
d="M223 276q-26 -138 -85.5 -207t-167.5 -69h-13l7 41h13q85 0 132 61t69 179l88 469h412l-141 -750h-46l133 706h-320z" />
    <glyph glyph-name="uni041C" unicode="&#x41c;" horiz-adv-x="813" 
d="M658 0h-47l92 488q4 20 9 46t11 53.5t11.5 54.5t10.5 49q-27 -58 -53 -104t-54 -96l-274 -491h-44l-97 492q-5 25 -10 47t-9 45t-8 49.5t-8 61.5q-5 -30 -8.5 -54t-7.5 -47t-8.5 -47.5t-10.5 -56.5l-92 -490h-46l141 750h62l95 -503q5 -27 9.5 -49.5t9 -44.5t9 -46.5
t9.5 -54.5q16 30 28.5 54t23.5 45.5t23 43.5t27 49l285 506h61z" />
    <glyph glyph-name="uni041D" unicode="&#x41d;" horiz-adv-x="686" 
d="M531 0h-46l70 373h-423l-70 -373h-47l141 750h47l-63 -333h423l63 333h45z" />
    <glyph glyph-name="uni041E" unicode="&#x41e;" 
d="M648 313q-31 -162 -121.5 -243.5t-238.5 -81.5q-146 0 -209 87.5t-33 249.5l22 114q31 161 123 242t238 81t208.5 -86t31.5 -249zM623 426q28 147 -22.5 219.5t-177.5 72.5q-125 0 -204 -72.5t-107 -219.5l-19 -102q-28 -148 23.5 -220t176.5 -72q122 0 202 72t108 220z
" />
    <glyph glyph-name="uni041F" unicode="&#x41f;" horiz-adv-x="681" 
d="M525 0h-47l133 706h-416l-133 -706h-47l141 750h510z" />
    <glyph glyph-name="uni0420" unicode="&#x420;" horiz-adv-x="615" 
d="M156 750h259q50 0 91 -7.5t67 -29.5t35.5 -62t-2.5 -104l-10 -53q-11 -60 -33 -95.5t-56.5 -54.5t-81.5 -24.5t-109 -5.5h-195l-59 -314h-47zM195 706l-66 -348h187q56 0 96.5 5t68.5 20t44.5 42t24.5 71l13 72q7 39 1.5 65.5t-24.5 42.5t-51.5 23t-79.5 7h-214z" />
    <glyph glyph-name="uni0421" unicode="&#x421;" horiz-adv-x="598" 
d="M596 695q-33 11 -74 16.5t-98 5.5q-134 0 -208 -65t-98 -204l-25 -142q-11 -60 -9 -110t23.5 -86.5t68 -56.5t125.5 -20q42 0 90 6t97 23l-8 -43q-24 -9 -51.5 -14.5t-54 -9t-49 -4.5t-37.5 -1q-85 0 -138.5 23.5t-80.5 66.5t-30.5 104.5t10.5 138.5l25 134
q16 86 46.5 144t75.5 93.5t103.5 50.5t131.5 15q53 0 97 -6t76 -19z" />
    <glyph glyph-name="uni0422" unicode="&#x422;" horiz-adv-x="595" 
d="M89 750h546l-9 -45h-244l-133 -705h-47l133 705h-255z" />
    <glyph glyph-name="uni0423" unicode="&#x423;" horiz-adv-x="514" 
d="M131 -12h-52l121 208l-112 553h53l65 -340q4 -22 7.5 -40t7.5 -36t7.5 -39t7.5 -48q15 27 26.5 47.5t21.5 39t20 36.5t22 40l196 340h52z" />
    <glyph glyph-name="uni0424" unicode="&#x424;" horiz-adv-x="739" 
d="M455 687q64 -3 115 -18t84 -47.5t45 -85t-2 -129.5l-7 -38q-14 -77 -45.5 -129t-77.5 -84.5t-104 -47.5t-125 -17l-20 -103h-45l20 103q-70 3 -122 19t-83.5 50t-41.5 88.5t4 132.5l6 34q14 78 45 129.5t77 83t104.5 45t126.5 15.5l14 74h45zM92 379q-14 -72 -5 -119.5
t37 -75.5t72.5 -40.5t103.5 -13.5l101 518q-59 -2 -109 -13t-89 -38t-66 -73t-40 -118zM654 401q14 71 6 117.5t-35.5 75t-73 40.5t-105.5 14l-101 -518q59 4 108.5 16t88.5 39.5t66 73.5t41 117z" />
    <glyph glyph-name="uni0425" unicode="&#x425;" horiz-adv-x="591" 
d="M355 228q-13 29 -26.5 63.5t-26.5 68.5q-29 -40 -56 -73t-47 -59l-185 -228h-58l316 385l-164 365h51l88 -203q17 -37 29.5 -69t27.5 -67l107 132l166 207h58l-301 -365l171 -385h-52z" />
    <glyph glyph-name="uni0426" unicode="&#x426;" horiz-adv-x="690" 
d="M572 -154h-45l29 154h-541l141 750h47l-133 -706h401l133 706h46l-133 -706h92z" />
    <glyph glyph-name="uni0427" unicode="&#x427;" horiz-adv-x="657" 
d="M497 0h-47l75 386q-27 -21 -60 -41t-71.5 -35.5t-82 -25.5t-91.5 -10q-39 0 -69.5 12t-50 34t-26.5 53.5t1 71.5l59 305h46l-57 -298q-14 -69 14 -101.5t99 -32.5q75 0 153 32.5t145 86.5l61 313h47z" />
    <glyph glyph-name="uni0428" unicode="&#x428;" horiz-adv-x="878" 
d="M722 0h-707l141 750h47l-133 -706h283l133 706h47l-133 -706h283l133 706h47z" />
    <glyph glyph-name="uni0429" unicode="&#x429;" horiz-adv-x="899" 
d="M781 -154h-46l29 154h-749l141 750h47l-133 -706h281l133 706h47l-133 -706h281l133 706h47l-133 -706h92z" />
    <glyph glyph-name="uni042A" unicode="&#x42a;" horiz-adv-x="693" 
d="M68 750h241l-49 -256h148q66 0 112.5 -8t74 -29.5t35.5 -58t-4 -93.5l-24 -119q-13 -63 -37 -100t-58 -56t-76.5 -24.5t-92.5 -5.5h-219l137 706h-196zM349 44q48 0 83.5 6.5t60.5 22.5t40.5 43.5t23.5 69.5l26 130q8 42 2.5 68.5t-27 41t-60.5 20t-97 5.5h-150l-79 -407
h177z" />
    <glyph glyph-name="uni042B" unicode="&#x42b;" horiz-adv-x="784" 
d="M474 186q-12 -63 -36 -100t-58 -56t-77 -24.5t-93 -5.5h-195l141 750h45l-50 -266h127q66 0 112 -8t73 -29t35 -57.5t-3 -93.5zM221 44q48 0 83.5 6.5t60.5 22.5t40.5 43.5t24.5 69.5l24 120q8 42 2.5 68.5t-27.5 41t-61 20t-97 5.5h-128l-75 -397h153zM627 -1h-46
l142 752h46z" />
    <glyph glyph-name="uni042C" unicode="&#x42c;" horiz-adv-x="593" 
d="M503 187q-12 -63 -36 -100t-58 -56.5t-77 -25t-93 -5.5h-224l141 750h45l-49 -261h155q66 0 112.5 -8t74 -29t35.5 -57.5t-3 -93.5zM250 44q48 0 84 6.5t61 22.5t40.5 43.5t23.5 69.5l25 125q8 42 2.5 68.5t-27.5 41t-61 20t-97 5.5h-157l-76 -402h182z" />
    </font>
</defs>
</svg>
