<?xml version="1.0" standalone="no"?>
<!DOCTYPE svg PUBLIC "-//W3C//DTD SVG 1.1//EN" "http://www.w3.org/Graphics/SVG/1.1/DTD/svg11.dtd" >
<svg xmlns="http://www.w3.org/2000/svg" xmlns:xlink="http://www.w3.org/1999/xlink" version="1.1">
<metadata>
Created by FontForge 20170731 at Thu Jul 27 12:31:11 2017
 By Aleksey,,,
Copyright c 2017 Hankook Tire Co.,Ltd. all rights reserved. Font designed by Sandoll Communications Inc.
</metadata>
<defs>
<font id="HankookTTFBoldOblique" horiz-adv-x="604" >
  <font-face 
    font-family="Hankook TTF Bold Oblique"
    font-weight="700"
    font-style="oblique"
    font-stretch="normal"
    units-per-em="1000"
    panose-1="2 11 6 0 0 1 1 1 1 1"
    ascent="800"
    descent="-200"
    x-height="553"
    cap-height="750"
    bbox="-189 -322 1543.5 1159"
    underline-thickness="50"
    underline-position="-150"
    unicode-range="U+000D-206F"
  />
<missing-glyph horiz-adv-x="280" 
 />
    <glyph glyph-name=".notdef" horiz-adv-x="280" 
 />
    <glyph glyph-name=".null" horiz-adv-x="0" 
 />
    <glyph glyph-name="nonmarkingreturn" unicode="&#xd;" horiz-adv-x="280" 
 />
    <glyph glyph-name="NULL" horiz-adv-x="0" 
 />
    <glyph glyph-name="NULL" horiz-adv-x="0" 
 />
    <glyph glyph-name="space" unicode=" " horiz-adv-x="260" 
 />
    <glyph glyph-name="exclam" unicode="!" horiz-adv-x="280" 
d="M306 750l-120 -510h-140l77 510h183zM20 159h159l-30 -159h-159z" />
    <glyph glyph-name="quotedbl" unicode="&#x22;" horiz-adv-x="423" 
d="M256 750l-61 -247h-110l34 247h137zM454 750l-61 -247h-111l35 247h137z" />
    <glyph glyph-name="numbersign" unicode="#" horiz-adv-x="722" 
d="M693 750l-69 -173h108l-22 -120h-134l-58 -147h109l-23 -120h-134l-75 -190h-126l75 190h-116l-75 -190h-125l75 190h-107l23 120h132l58 147h-106l22 120h132l69 173h126l-69 -173h116l69 173h125zM276 310h116l59 147h-116z" />
    <glyph glyph-name="dollar" unicode="$" horiz-adv-x="641" 
d="M275 -71h-65l16 85q-55 0 -119 10t-118 27l24 125q63 -17 118.5 -26t118.5 -9l32 169l-56 16q-67 19 -107.5 61.5t-40.5 110.5q0 62 19.5 106t56.5 72.5t90 42.5t120 16l14 75h65l-14 -75q56 -2 103 -9t74 -15l-23 -116q-17 4 -39 8t-45.5 6.5t-47.5 4t-45 1.5l-33 -172
l44 -11q84 -21 118.5 -61t35.5 -97q0 -60 -15.5 -106t-49 -78t-86.5 -50.5t-129 -23.5zM232 534q0 -35 18.5 -49.5t60.5 -25.5l29 154q-59 -6 -83.5 -25.5t-24.5 -53.5zM415 240q0 18 -14.5 29.5t-56.5 23.5l-28 -149q59 7 79 31.5t20 64.5z" />
    <glyph glyph-name="percent" unicode="%" horiz-adv-x="846" 
d="M48 0l617 736h133l-617 -736h-133zM401 512q-14 -72 -62.5 -110t-129.5 -38q-40 0 -70.5 11.5t-50 32t-27 50t-0.5 65.5l13 66q15 72 62.5 110.5t127.5 38.5q41 0 72.5 -11.5t51 -32.5t26.5 -50.5t0 -65.5zM298 573q8 36 -3 51.5t-40 15.5q-30 0 -46.5 -15.5t-23.5 -51.5
l-8 -44q-7 -36 3.5 -51.5t40.5 -15.5q29 0 45.5 15.5t23.5 51.5zM764 136q-14 -72 -62.5 -110t-129.5 -38q-40 0 -70.5 11.5t-50 32t-27 50t-0.5 65.5l13 66q15 72 62.5 110.5t127.5 38.5q41 0 72.5 -11.5t51 -32.5t26.5 -50.5t0 -65.5zM661 197q7 36 -3.5 51.5t-39.5 15.5
q-30 0 -46.5 -15.5t-23.5 -51.5l-8 -45q-7 -36 3.5 -51.5t40.5 -15.5q29 0 45.5 15.5t23.5 51.5z" />
    <glyph glyph-name="ampersand" unicode="&#x26;" horiz-adv-x="683" 
d="M248 512q0 -38 23.5 -51t68.5 -13h343l-25 -125h-73l-58 -298q-62 -20 -131.5 -28t-144.5 -8q-125 0 -188 47.5t-63 136.5q0 26 6 57t23 61t47 55t77 40q-42 17 -59.5 53t-17.5 72q0 121 83.5 178t245.5 57q26 0 54 -2t54 -6t47.5 -9t34.5 -11l-23 -118
q-35 10 -79.5 14.5t-87.5 4.5q-38 0 -67 -4.5t-49 -16t-30.5 -32.5t-10.5 -54zM424 323h-110q-29 0 -54 -6t-43 -21t-28.5 -40.5t-10.5 -64.5q0 -16 5.5 -29.5t18 -23t34 -15t54.5 -5.5q32 0 56 3t39 6z" />
    <glyph glyph-name="quotesingle" unicode="'" horiz-adv-x="225" 
d="M256 750l-61 -247h-110l34 247h137z" />
    <glyph glyph-name="parenleft" unicode="(" horiz-adv-x="386" 
d="M67 442q24 120 78.5 218.5t141.5 170.5h170q-51 -44 -89.5 -92.5t-66 -100t-45.5 -106.5t-29 -112l-27 -147q-11 -57 -15 -116t2 -116t24.5 -109.5t52.5 -95.5h-162q-29 36 -47 89.5t-25 115t-4.5 127t14.5 125.5z" />
    <glyph glyph-name="parenright" unicode=")" horiz-adv-x="390" 
d="M306 225q-22 -121 -77 -219t-142 -170h-171q103 88 156 192t74 219l27 147q11 57 15 116t-2 116t-24.5 109t-52.5 96h162q29 -36 46.5 -89.5t24.5 -115t4.5 -127t-13.5 -125.5z" />
    <glyph glyph-name="asterisk" unicode="*" horiz-adv-x="457" 
d="M204 468l-121 -77l-32 96l135 54l-114 54l68 96l92 -77l12 135h119l-41 -135l121 77l32 -96l-136 -54l115 -54l-68 -96l-93 77l-11 -135h-119z" />
    <glyph glyph-name="plus" unicode="+" horiz-adv-x="570" 
d="M44 414h179l37 194h140l-37 -194h181l-25 -132h-180l-39 -207h-140l39 207h-180z" />
    <glyph glyph-name="comma" unicode="," horiz-adv-x="277" 
d="M33 162h162l-140 -310h-123z" />
    <glyph glyph-name="hyphen" unicode="-" horiz-adv-x="301" 
d="M-5 219l28 146h254l-28 -146h-254z" />
    <glyph glyph-name="period" unicode="." horiz-adv-x="275" 
d="M14 162h169l-31 -162h-169z" />
    <glyph glyph-name="slash" unicode="/" horiz-adv-x="555" 
d="M-84 -164l556 995h155l-556 -995h-155z" />
    <glyph glyph-name="zero" unicode="0" horiz-adv-x="610" 
d="M567 307q-16 -81 -41 -140.5t-63 -98.5t-92 -58.5t-127 -19.5q-147 0 -202 84t-23 246l24 120q15 80 41 139t65 98t93.5 58.5t127.5 19.5q148 0 200 -84t21 -244zM415 421q10 48 13.5 83.5t-2.5 59t-24 34.5t-52 11q-33 0 -54.5 -10.5t-36.5 -33t-25.5 -57.5t-20.5 -83
l-19 -102q-10 -49 -13.5 -84.5t3 -58.5t24 -34t49.5 -11q34 0 56 10.5t37.5 32.5t25.5 57t20 84z" />
    <glyph glyph-name="one" unicode="1" horiz-adv-x="610" 
d="M22 0l25 132h158l83 424l-178 -78l29 150l252 117h114l-119 -613h142l-25 -132h-481z" />
    <glyph glyph-name="two" unicode="2" horiz-adv-x="610" 
d="M-40 0l22 121l334 276q25 21 41 36t26 28.5t15.5 27.5t9.5 34l3 14q4 19 2 33t-13 22t-33.5 12t-59.5 4q-41 0 -95.5 -8.5t-111.5 -26.5l28 143q22 8 49.5 15t57.5 12.5t60 8.5t57 3q75 0 123.5 -16.5t75 -45t33.5 -68t-2 -84.5l-7 -33q-6 -30 -17 -54t-30.5 -47
t-49.5 -49.5t-74 -62.5l-188 -155h305l-26 -140h-535z" />
    <glyph glyph-name="three" unicode="3" horiz-adv-x="610" 
d="M160 314l26 132h91q57 0 88.5 25.5t31.5 85.5q0 31 -22.5 44.5t-78.5 13.5q-45 0 -96 -8.5t-96 -22.5l27 138q19 7 45 13t55.5 10.5t61.5 7t62 2.5q58 0 98.5 -12t65 -33.5t35.5 -51.5t11 -66q0 -29 -6 -62t-22.5 -63.5t-44.5 -54.5t-73 -36q58 -13 83 -44t25 -78
q0 -136 -79 -200t-246 -64q-33 0 -66.5 3t-63.5 8.5t-55 12t-42 14.5l28 139q19 -8 43.5 -14.5t51.5 -11.5t55 -8t55 -3q79 0 115 29t36 93q0 38 -26.5 50t-77.5 12h-95z" />
    <glyph glyph-name="four" unicode="4" horiz-adv-x="610" 
d="M-34 137l24 123l407 485h177l-92 -474h92l-26 -134h-92l-26 -137h-165l26 137h-325zM317 271l50 260l-215 -260h165z" />
    <glyph glyph-name="five" unicode="5" horiz-adv-x="610" 
d="M155 745h448l-27 -139h-300l-30 -140q25 4 42.5 5.5t43.5 1.5q75 0 120.5 -19t69 -50.5t27.5 -72t-4 -82.5l-10 -54q-20 -106 -101.5 -155.5t-226.5 -49.5q-35 0 -69.5 3.5t-66 8.5t-57 12t-41.5 14l27 135q39 -16 94.5 -25t118.5 -9q66 0 102 23t44 67l6 33
q10 52 -20.5 69.5t-101.5 17.5q-51 0 -96 -5t-87 -13z" />
    <glyph glyph-name="six" unicode="6" horiz-adv-x="610" 
d="M47 425q20 99 55.5 162.5t83 101t105.5 52t123 14.5q54 0 104.5 -7.5t86.5 -21.5l-27 -134q-32 10 -75 17t-88 7q-36 0 -66.5 -6.5t-54.5 -24.5t-42.5 -51t-31.5 -85q30 14 63.5 22.5t71.5 8.5q64 0 107.5 -17t68.5 -47t31.5 -72t-3.5 -92l-8 -43q-9 -47 -30.5 -87
t-57 -69.5t-84.5 -46t-112 -16.5q-155 0 -214 85t-24 260zM269 132q30 0 51 7.5t34.5 21t21.5 32.5t13 41l5 25q9 48 -8 70.5t-74 22.5t-117 -30q-10 -50 -12 -86t6 -59t27.5 -34t52.5 -11z" />
    <glyph glyph-name="seven" unicode="7" horiz-adv-x="610" 
d="M620 620l-402 -620h-195l406 600h-359l28 145h546z" />
    <glyph glyph-name="eight" unicode="8" horiz-adv-x="610" 
d="M154 378q-42 20 -58.5 51t-16.5 73q0 63 21.5 110t61.5 79t97 48t128 16q61 0 104 -12t70.5 -33.5t40 -52t12.5 -67.5q0 -79 -34 -128t-106 -81q53 -20 71.5 -53t18.5 -76q0 -54 -17.5 -101.5t-56 -83.5t-98 -56.5t-143.5 -20.5q-69 0 -117.5 13t-79 35.5t-44.5 53
t-14 65.5q0 82 43.5 138.5t116.5 82.5zM271 315l-20 -11q-45 -25 -64 -49t-19 -67q0 -31 21 -46.5t69 -15.5q60 0 92.5 27t32.5 80q0 26 -15 44t-60 29zM257 527q0 -27 13.5 -41.5t43.5 -21.5l42 -10l28 14q14 7 26 15t21 19.5t14.5 28.5t5.5 41q0 27 -16.5 42t-64.5 15
q-51 0 -82 -26.5t-31 -75.5z" />
    <glyph glyph-name="nine" unicode="9" horiz-adv-x="610" 
d="M566 320q-20 -99 -54 -162.5t-80.5 -101t-105 -52t-127.5 -14.5q-54 0 -104.5 7.5t-86.5 21.5l27 134q32 -10 75 -17t88 -7q36 0 66.5 6.5t55 24.5t43 50.5t30.5 85.5q-30 -14 -64 -22.5t-71 -8.5q-64 0 -108 17t-68.5 47t-31 72t3.5 92l8 43q9 47 30.5 87t57 69.5
t84.5 46t112 16.5q155 0 214 -85t24 -260zM344 613q-32 0 -53 -7.5t-34.5 -21t-21 -32.5t-11.5 -41l-5 -25q-9 -48 8 -70.5t74 -22.5q56 0 116 29q9 50 11 86t-5.5 59.5t-26.5 34.5t-52 11z" />
    <glyph glyph-name="colon" unicode=":" horiz-adv-x="275" 
d="M14 162h169l-31 -162h-169zM87 540h169l-31 -162h-169z" />
    <glyph glyph-name="semicolon" unicode=";" horiz-adv-x="275" 
d="M26 162h162l-140 -310h-123zM87 540h169l-31 -162h-169z" />
    <glyph glyph-name="less" unicode="&#x3c;" horiz-adv-x="578" 
d="M236 363l-2 -9l265 -132l-31 -153l-425 231l26 132l515 231l-31 -168z" />
    <glyph glyph-name="equal" unicode="=" horiz-adv-x="580" 
d="M47 403l27 136h500l-27 -136h-500zM1 162l26 137h500l-26 -137h-500z" />
    <glyph glyph-name="greater" unicode="&#x3e;" horiz-adv-x="578" 
d="M342 369l2 9l-265 132l31 153l425 -231l-26 -132l-515 -231l31 168z" />
    <glyph glyph-name="question" unicode="?" horiz-adv-x="490" 
d="M113 237l10 50q5 27 12 46.5t21 37.5t36.5 35.5t59.5 39.5q24 14 41.5 25t29 24.5t17 32t5.5 48.5q0 29 -22 40.5t-77 11.5q-42 0 -87 -9.5t-87 -24.5l24 125q38 16 89 27t104 11q62 0 103.5 -12t66.5 -34t35.5 -51.5t10.5 -63.5q0 -62 -14.5 -100.5t-36 -63t-46 -39
t-44.5 -27.5q-31 -20 -50 -32.5t-29.5 -22.5t-15 -19.5t-7.5 -22.5l-7 -32h-142zM90 159h159l-30 -159h-159z" />
    <glyph glyph-name="at" unicode="@" horiz-adv-x="954" 
d="M729 -130q-69 -22 -148 -34.5t-181 -12.5q-236 0 -334.5 102.5t-60.5 297.5l25 131q18 92 60.5 163.5t106.5 120t147.5 74t183.5 25.5q105 0 186.5 -25t133.5 -74.5t71.5 -122.5t0.5 -170l-13 -70q-8 -39 -21 -80.5t-39 -75t-70 -55.5t-113 -22q-42 0 -72.5 16.5
t-44.5 45.5q-32 -27 -80.5 -44.5t-107.5 -17.5q-46 0 -75 13.5t-44.5 37t-18 56t4.5 70.5l24 123q10 49 27 83t42 55t58 30t74 9q35 0 69.5 -11.5t51.5 -28.5l5 20l146 20l-60 -311q-6 -30 -2.5 -46t29.5 -16q35 0 60.5 32.5t39.5 101.5l14 74q15 78 0 130.5t-53.5 85
t-97.5 46.5t-132 14q-69 0 -130.5 -16t-111 -50.5t-84 -88.5t-49.5 -130l-23 -120q-16 -81 -4 -137t49.5 -91t99.5 -50.5t148 -15.5q88 0 171.5 11.5t162.5 34.5zM543 381q-8 9 -25.5 17t-40.5 8q-14 0 -25.5 -3.5t-21 -12.5t-16.5 -26t-12 -44l-17 -84q-4 -19 -5.5 -33.5
t2 -24t12.5 -14.5t26 -5q19 0 41.5 5.5t43.5 19.5z" />
    <glyph glyph-name="A" unicode="A" horiz-adv-x="726" 
d="M538 750l111 -750h-187l-20 162h-236l-82 -162h-187l394 750h207zM274 310h155l-15 162q-2 17 -3 31.5t-2 29.5t-1 31.5t1 36.5q-6 -20 -12.5 -36t-13 -31t-14 -29.5t-15.5 -32.5z" />
    <glyph glyph-name="B" unicode="B" horiz-adv-x="668" 
d="M135 750h308q53 0 95 -8t69.5 -27.5t38.5 -52t1 -81.5l-11 -58q-5 -22 -13 -43t-21.5 -39t-33.5 -32.5t-48 -23.5q61 -13 80 -52t8 -90l-15 -79q-11 -54 -32 -86.5t-55.5 -49.5t-84.5 -22.5t-119 -5.5h-312zM231 327l-40 -202h98q32 0 54.5 3.5t37 13t23.5 25.5t14 41
l6 33q9 47 -9.5 66.5t-77.5 19.5h-106zM289 625l-35 -179h102q19 0 35.5 2t29 9.5t21 22.5t13.5 40l7 37q8 41 -9.5 54.5t-66.5 13.5h-97z" />
    <glyph glyph-name="C" unicode="C" horiz-adv-x="622" 
d="M617 587q-35 8 -79 12.5t-91 4.5q-54 0 -90 -10.5t-59.5 -31t-37 -51t-21.5 -70.5l-24 -125q-9 -44 -7.5 -75.5t17 -52.5t47.5 -31t85 -10q40 0 90 4.5t101 18.5l-30 -150q-23 -9 -50.5 -15t-56 -9t-56.5 -4.5t-51 -1.5q-175 0 -237.5 84t-27.5 261l23 118
q18 93 50.5 152.5t81 94t113 47.5t146.5 13q28 0 55.5 -1.5t53 -5t47.5 -8t38 -10.5z" />
    <glyph glyph-name="D" unicode="D" horiz-adv-x="708" 
d="M-10 0l145 750h282q79 0 137 -17t92.5 -53t44.5 -92.5t-6 -135.5l-35 -188q-14 -74 -38.5 -124.5t-64 -81.5t-97 -44.5t-136.5 -13.5h-324zM283 599l-87 -448h109q46 0 76.5 9.5t49.5 28.5t29.5 47.5t18.5 66.5l29 148q7 35 7.5 62.5t-10.5 46.5t-36.5 29t-70.5 10h-115z
" />
    <glyph glyph-name="E" unicode="E" 
d="M635 750l-27 -143h-322l-30 -154h290l-28 -142h-290l-33 -168h336l-27 -143h-514l145 750h500z" />
    <glyph glyph-name="F" unicode="F" horiz-adv-x="586" 
d="M625 750l-29 -151h-312l-35 -176h280l-29 -151h-280l-52 -272h-178l145 750h490z" />
    <glyph glyph-name="G" unicode="G" horiz-adv-x="686" 
d="M631 590q-35 8 -82.5 13t-94.5 5q-54 0 -90.5 -9t-60.5 -28.5t-38 -50.5t-23 -74l-27 -136q-8 -44 -7.5 -75.5t15.5 -52.5t47 -31t85 -10q22 0 40 1.5t35 6.5l28 147h-114l27 134h280l-79 -405q-57 -20 -123.5 -27.5t-131.5 -7.5q-91 0 -152.5 20t-95 61.5t-41 105.5
t10.5 153l23 118q18 94 51.5 154.5t82.5 95.5t114.5 48.5t148.5 13.5q27 0 55 -2t55 -5t50.5 -8t40.5 -11z" />
    <glyph glyph-name="H" unicode="H" horiz-adv-x="726" 
d="M736 750l-145 -750h-177l58 303h-247l-58 -303h-177l145 750h177l-56 -285h247l56 285h177z" />
    <glyph glyph-name="I" unicode="I" horiz-adv-x="303" 
d="M168 0h-178l145 750h178z" />
    <glyph glyph-name="J" unicode="J" horiz-adv-x="436" 
d="M453 750l-105 -542q-11 -57 -27 -98t-43 -68t-69 -39.5t-105 -12.5q-12 0 -33 1.5t-44.5 4.5t-45.5 7.5t-36 10.5l31 153q33 -13 61 -17t54 -4q18 0 31.5 4t23.5 13.5t16.5 25.5t11.5 41l102 520h177z" />
    <glyph glyph-name="K" unicode="K" horiz-adv-x="722" 
d="M462 378l181 -378h-204l-133 308h-79l-59 -308h-178l145 750h178l-58 -299h64l227 299h216z" />
    <glyph glyph-name="L" unicode="L" horiz-adv-x="584" 
d="M313 750l-115 -594h316l-30 -156h-494l145 750h178z" />
    <glyph glyph-name="M" unicode="M" horiz-adv-x="890" 
d="M755 0h-156l88 461q5 27 16 65.5t20 68.5q-7 -21 -16 -44.5t-17.5 -45t-16 -39.5t-11.5 -27l-200 -439h-177l-34 441q-1 10 -1.5 28t-0.5 39v44v43q-3 -35 -7 -69t-10 -64l-89 -462h-153l145 750h230l37 -488q2 -28 2.5 -49.5t-1.5 -51.5q8 28 19 53.5t20 46.5l216 489
h242z" />
    <glyph glyph-name="N" unicode="N" horiz-adv-x="723" 
d="M593 0h-178l-142 400q-11 29 -16 55.5t-9 54.5l-95 -510h-163l142 750h177l141 -397q9 -26 14.5 -49.5t10.5 -52.5l95 499h163z" />
    <glyph glyph-name="O" unicode="O" horiz-adv-x="742" 
d="M685 291q-32 -162 -127.5 -233t-256.5 -71q-78 0 -136 23t-93 67.5t-45.5 108.5t5.5 145l25 128q16 81 49 138.5t82 94t112.5 54t139.5 17.5q79 0 137.5 -23.5t93 -68t45 -108t-5.5 -144.5zM530 423q20 97 -8 140t-106 43q-79 0 -124.5 -43t-63.5 -140l-18 -96
q-19 -97 9 -140t107 -43q78 0 122.5 43t63.5 140z" />
    <glyph glyph-name="P" unicode="P" horiz-adv-x="648" 
d="M135 750h293q60 0 106.5 -10.5t76.5 -35t41.5 -65.5t-0.5 -102l-17 -86q-11 -57 -33 -91.5t-58 -53.5t-87 -25.5t-120 -6.5h-116l-53 -274h-178zM288 621l-43 -217h78q34 0 57.5 3.5t40 13t26 27t15.5 45.5l9 46q9 45 -13 63.5t-80 18.5h-90z" />
    <glyph glyph-name="Q" unicode="Q" horiz-adv-x="742" 
d="M685 291q-36 -178 -150 -249l64 -145h-167l-42 96q-42 -6 -89 -6q-78 0 -136 23t-93 67.5t-45.5 108.5t5.5 145l25 128q16 81 49 138.5t82 94t112.5 54t139.5 17.5q79 0 137.5 -23.5t93 -68t45 -108t-5.5 -144.5zM433 277l32 -73q33 43 49 123l18 96q20 97 -9 140
t-107 43q-79 0 -125.5 -43t-64.5 -140l-18 -96q-19 -97 9.5 -140t106.5 -43l-58 133h167z" />
    <glyph glyph-name="R" unicode="R" horiz-adv-x="678" 
d="M135 750h295q62 0 109 -10.5t77 -35.5t40.5 -66t-1.5 -102l-15 -75q-7 -35 -18 -59.5t-26.5 -42.5t-36.5 -31t-48 -23l81 -305h-186l-66 281h-118l-54 -281h-178zM288 621l-41 -210h82q34 0 57.5 3.5t40 13t26 26.5t15.5 45l7 41q9 45 -12.5 63t-79.5 18h-95z" />
    <glyph glyph-name="S" unicode="S" 
d="M218 -10q-55 0 -119.5 8.5t-121.5 31.5l28 144q60 -22 115.5 -30.5t99.5 -8.5q73 0 111 20.5t38 74.5q0 14 -6 24t-19 17.5t-34 15t-51 17.5l-68 22q-59 19 -94.5 63.5t-35.5 110.5q0 134 83 197t243 63q30 0 61 -1.5t59 -5t52 -8t41 -10.5l-27 -137q-38 10 -85.5 15
t-89.5 5q-86 0 -120 -21.5t-34 -67.5q0 -14 7 -23.5t20.5 -16.5t32 -13t42.5 -14l70 -24q67 -23 103 -59.5t36 -102.5q0 -79 -23.5 -133.5t-67.5 -88.5t-106 -49t-140 -15z" />
    <glyph glyph-name="T" unicode="T" horiz-adv-x="655" 
d="M56 594l30 156h612l-30 -156h-217l-114 -594h-177l114 594h-218z" />
    <glyph glyph-name="U" unicode="U" horiz-adv-x="745" 
d="M311 750l-81 -423q-10 -51 -8 -84.5t15 -53.5t38 -28t62 -8t64 8t46 28t32 53.5t23 84.5l81 423h179l-94 -484q-15 -76 -43 -129t-70 -86.5t-99 -48.5t-130 -15q-160 0 -235 79.5t-45 233.5l87 450h178z" />
    <glyph glyph-name="V" unicode="V" horiz-adv-x="714" 
d="M263 750l45 -429q2 -20 3 -37.5t2 -36.5t1 -40v-48q9 27 17 48.5t15.5 40.5t15.5 36.5t18 36.5l214 429h184l-390 -750h-207l-106 750h188z" />
    <glyph glyph-name="W" unicode="W" horiz-adv-x="1002" 
d="M523 401q-1 32 2.5 78.5t8.5 91.5q-16 -46 -31.5 -92t-28.5 -78l-159 -401h-218l-21 750h178l-2 -395q-1 -42 -2.5 -83.5t-5.5 -89.5q18 49 32.5 89t31.5 84l156 395h198l7 -395q1 -41 -1.5 -78.5t-8.5 -88.5q16 45 31 85t31 82l158 395h177l-325 -750h-204z" />
    <glyph glyph-name="X" unicode="X" horiz-adv-x="727" 
d="M368 178q-11 29 -17 56t-10 62q-20 -39 -38 -64.5t-38 -53.5l-127 -178h-208l295 386l-132 364h199l53 -168q5 -16 8.5 -28t6.5 -24.5t5.5 -26.5t5.5 -35q12 20 21 34.5t18 27t18 24.5t20 29l114 167h205l-279 -365l146 -385h-202z" />
    <glyph glyph-name="Y" unicode="Y" horiz-adv-x="659" 
d="M393 295l-56 -295h-178l56 293l-151 457h181l53 -188q9 -33 16 -64.5t13 -75.5q22 44 41 75.5t41 64.5l124 188h186z" />
    <glyph glyph-name="Z" unicode="Z" horiz-adv-x="653" 
d="M280 222l-18 -18t-17.5 -16.5t-20.5 -19t-27 -24.5h369l-27 -144h-575l26 137l370 392q23 24 41.5 41.5t38.5 36.5h-343l27 143h549l-26 -136z" />
    <glyph glyph-name="bracketleft" unicode="[" horiz-adv-x="442" 
d="M159 831h353l-26 -133h-188l-142 -729h188l-26 -133h-353z" />
    <glyph glyph-name="backslash" unicode="\" horiz-adv-x="555" 
d="M280 -164l-169 995h152l168 -995h-151z" />
    <glyph glyph-name="bracketright" unicode="]" horiz-adv-x="442" 
d="M271 -164h-352l25 133h189l142 729h-189l26 133h353z" />
    <glyph glyph-name="asciicircum" unicode="^" horiz-adv-x="570" 
d="M292 747h135l122 -307h-143l-63 158h-7l-127 -158h-158z" />
    <glyph glyph-name="underscore" unicode="_" horiz-adv-x="428" 
d="M-75 -27h427l-27 -135h-427z" />
    <glyph glyph-name="grave" unicode="`" horiz-adv-x="582" 
d="M459 601h-141l-96 147h167z" />
    <glyph glyph-name="a" unicode="a" horiz-adv-x="568" 
d="M446 0h-128l-6 50q-35 -25 -80.5 -42.5t-101.5 -17.5q-37 0 -66 10t-47 30.5t-24 51.5t2 73l7 38q9 47 28 77t51 46.5t77.5 22.5t107.5 6h80l6 30q4 21 3.5 35t-8 22t-23 11t-40.5 3q-14 0 -35 -2t-45 -6.5t-49.5 -10.5t-49.5 -15l24 122q44 16 98.5 24.5t96.5 8.5
q66 0 107.5 -15.5t63 -43t25.5 -66.5t-5 -87zM326 240h-64q-18 0 -34 -0.5t-28 -5.5t-21 -15.5t-13 -31.5l-4 -23q-12 -54 41 -54q23 0 52.5 8t51.5 25z" />
    <glyph glyph-name="b" unicode="b" horiz-adv-x="616" 
d="M421 567q50 0 82.5 -17.5t49.5 -46t20.5 -65.5t-3.5 -77l-33 -172q-11 -56 -31 -94t-51 -61t-72.5 -33.5t-94.5 -10.5q-46 0 -88 14t-68 37l-17 -41h-131l145 744l178 30l-50 -252q36 21 78.5 33t85.5 12zM187 159q13 -12 37 -21t53 -9q40 0 62.5 22.5t33.5 77.5l22 116
q8 45 -4.5 64.5t-49.5 19.5q-26 0 -56 -10t-52 -26z" />
    <glyph glyph-name="c" unicode="c" horiz-adv-x="520" 
d="M482 420q-22 7 -55.5 12.5t-74.5 5.5q-37 0 -63.5 -7t-45.5 -22.5t-30.5 -39.5t-17.5 -58l-14 -67q-7 -36 -4.5 -60t15.5 -38t37 -20t61 -6q32 0 69 5t79 19l-25 -129q-18 -7 -41.5 -12t-48.5 -8.5t-48.5 -5t-40.5 -1.5q-142 0 -193 73t-25 205l14 72q13 67 39.5 111
t66 70.5t93 37t119.5 10.5q21 0 43 -1.5t43.5 -4.5t40 -7.5t31.5 -10.5z" />
    <glyph glyph-name="d" unicode="d" horiz-adv-x="621" 
d="M165 -10q-48 0 -81 16.5t-51 44t-22.5 64.5t3.5 78l34 172q12 60 36 99t57.5 62t74 32t85.5 9q41 0 72 -6.5t54 -18.5l40 202l178 30l-150 -774h-137l-5 49q-36 -26 -80.5 -42.5t-107.5 -16.5zM400 406q-13 11 -34.5 17t-44.5 6q-21 0 -38 -4t-30.5 -14.5t-23 -29
t-15.5 -47.5l-23 -118q-8 -42 2 -65t48 -23q29 0 57.5 9t54.5 26z" />
    <glyph glyph-name="e" unicode="e" horiz-adv-x="574" 
d="M512 219h-338l-2 -11q-5 -29 0 -47.5t19.5 -29.5t39 -15t57.5 -4q32 0 77.5 6t86.5 20l-23 -118q-17 -8 -39 -13.5t-46 -9.5t-49 -6t-47 -2q-142 0 -201 66.5t-33 199.5l14 70q13 69 40.5 115.5t65 74.5t83.5 40t97 12q56 0 101.5 -15t75 -48.5t39.5 -87t-5 -130.5z
M371 323l4 21q9 46 -7.5 72t-63.5 26q-44 0 -70.5 -26t-35.5 -74l-4 -19h177z" />
    <glyph glyph-name="f" unicode="f" horiz-adv-x="432" 
d="M312 553h134l-25 -126h-134l-82 -427h-173l82 427h-87l25 126h87l14 69q7 34 21.5 63t39.5 49t62 31.5t89 11.5q38 0 73.5 -4t57.5 -10l-22 -113q-16 3 -33.5 5t-36.5 2q-23 0 -38 -4t-24.5 -12t-15 -22t-8.5 -33z" />
    <glyph glyph-name="g" unicode="g" horiz-adv-x="617" 
d="M177 -6q-55 0 -90.5 16.5t-54 45t-22.5 65.5t4 78l32 164q12 60 35 99.5t55.5 62.5t72 32.5t84.5 9.5q38 0 80.5 -9t74.5 -36l19 31h133l-108 -552q-11 -57 -30.5 -99t-54 -70t-88.5 -41.5t-133 -13.5q-42 0 -83.5 5t-67.5 12l24 124q29 -8 63 -12t69 -4q61 0 88.5 18
t36.5 65l9 45q-65 -36 -148 -36zM397 402q-13 14 -35 21t-45 7q-42 0 -67.5 -19.5t-36.5 -71.5l-23 -115q-9 -45 3.5 -68.5t54.5 -23.5q56 0 101 21z" />
    <glyph glyph-name="h" unicode="h" horiz-adv-x="601" 
d="M475 0h-173l68 357q7 35 2 51t-37 16q-23 0 -50 -8.5t-52 -22.5l-76 -393h-173l145 744l178 30l-49 -250q38 20 80 31.5t79 11.5q47 0 76 -16t43 -43t16 -61.5t-5 -71.5z" />
    <glyph glyph-name="i" unicode="i" horiz-adv-x="294" 
d="M157 0h-173l107 553h173zM278 625h-173l32 163h173z" />
    <glyph glyph-name="j" unicode="j" horiz-adv-x="315" 
d="M285 553l-115 -591q-11 -59 -30.5 -95t-47.5 -56t-64 -27t-81 -7q-40 0 -72 4t-60 11l28 138q23 -5 43.5 -6.5t38.5 -1.5t31 2.5t22 10.5t15.5 22.5t11.5 39.5l108 556h172zM299 625h-172l32 163h172z" />
    <glyph glyph-name="k" unicode="k" horiz-adv-x="606" 
d="M307 774l-80 -409h45l150 188h214l-222 -259l112 -294h-195l-76 225h-55l-43 -225h-173l145 744z" />
    <glyph glyph-name="l" unicode="l" horiz-adv-x="291" 
d="M-16 0l145 744l178 30l-150 -774h-173z" />
    <glyph glyph-name="m" unicode="m" horiz-adv-x="895" 
d="M769 0h-172l68 356q8 34 2 50t-35 16q-21 0 -45.5 -8t-47.5 -22l-76 -392h-172l68 356q7 35 2 51.5t-35 16.5q-21 0 -46.5 -8.5t-48.5 -23.5l-76 -392h-171l107 553h128l3 -47q45 31 92.5 45.5t89.5 14.5q53 0 79 -16.5t41 -42.5q47 29 94.5 44t92.5 15q47 0 76 -16
t43 -43t15.5 -63t-5.5 -75z" />
    <glyph glyph-name="n" unicode="n" horiz-adv-x="601" 
d="M475 0h-173l68 357q7 35 2 51t-37 16q-23 0 -51.5 -8t-51.5 -24l-76 -392h-172l107 553h128l3 -47q47 31 100.5 46t94.5 15q47 0 76 -16t43 -43t16 -61.5t-5 -71.5z" />
    <glyph glyph-name="o" unicode="o" horiz-adv-x="600" 
d="M226 -13q-130 0 -183.5 71t-28.5 197l16 80q24 120 99 176t202 56q67 0 113.5 -19.5t73 -55.5t34 -86t-4.5 -110l-16 -80q-12 -63 -37 -106.5t-62.5 -70.5t-88.5 -39.5t-117 -12.5zM311 432q-44 0 -71 -24t-41 -93l-13 -66q-13 -69 3.5 -98t60.5 -29t71.5 24.5t40.5 93.5
l13 66q14 69 -3 97.5t-61 28.5z" />
    <glyph glyph-name="p" unicode="p" horiz-adv-x="617" 
d="M422 567q50 0 82.5 -17.5t50 -46.5t21 -66t-4.5 -77l-31 -158q-12 -57 -32 -97.5t-51.5 -66t-75 -37t-102.5 -11.5q-23 0 -57 4t-65 15l-43 -225h-173l150 769h128l9 -43q55 31 101 44t93 13zM183 137q23 -7 42 -9t40 -2q45 0 70.5 22t36.5 74l23 121q8 45 -4 65.5
t-50 20.5q-25 0 -53 -9t-55 -25z" />
    <glyph glyph-name="q" unicode="q" horiz-adv-x="619" 
d="M175 -10q-54 0 -89 16.5t-53.5 45t-22.5 65.5t4 78l33 168q12 60 35.5 99.5t56.5 62.5t74 32.5t88 9.5q38 0 77.5 -9t71.5 -36l19 31h133l-150 -769h-173l47 242q-65 -36 -151 -36zM399 402q-13 14 -33.5 21t-43.5 7q-42 0 -69.5 -20.5t-38.5 -78.5l-23 -119
q-9 -44 4 -64t53 -20q57 0 102 21z" />
    <glyph glyph-name="r" unicode="r" horiz-adv-x="413" 
d="M403 399q-48 -1 -96.5 -13.5t-83.5 -35.5l-67 -350h-172l107 553h126l-2 -77q41 36 95 62t126 29z" />
    <glyph glyph-name="s" unicode="s" horiz-adv-x="485" 
d="M179 -10q-23 0 -49.5 2t-53.5 6.5t-53 10.5t-47 14l25 127q58 -20 107 -25.5t77 -5.5q57 0 77 11.5t20 43.5q0 14 -12.5 21.5t-47.5 17.5l-57 16q-65 18 -93 53t-28 88q0 105 63 151t196 46q54 0 97.5 -7t66.5 -14l-24 -122q-14 4 -32.5 8t-39 7t-40.5 4.5t-36 1.5
q-57 0 -76.5 -11.5t-19.5 -38.5q0 -14 15.5 -21.5t53.5 -18.5l59 -17q34 -10 56.5 -24t35.5 -31t18 -37t5 -42q0 -60 -19.5 -101t-54.5 -66t-83 -36t-106 -11z" />
    <glyph glyph-name="t" unicode="t" horiz-adv-x="429" 
d="M415 429h-142l-47 -240q-8 -39 -0.5 -53t40.5 -14q23 0 46.5 4t45.5 14l-23 -123q-31 -16 -73 -21.5t-77 -5.5q-46 0 -76 12.5t-46 35t-19.5 54.5t4.5 71l52 266h-84l24 124h84l22 115l180 34l-29 -149h142z" />
    <glyph glyph-name="u" unicode="u" horiz-adv-x="602" 
d="M84 553h172l-70 -357q-7 -35 -1.5 -52t35.5 -17q23 0 51 9t53 24l76 393h172l-107 -553h-128l-4 47q-48 -32 -95.5 -45.5t-92.5 -13.5q-50 0 -80 16t-44.5 43t-16 62t6.5 72z" />
    <glyph glyph-name="v" unicode="v" horiz-adv-x="550" 
d="M305 0h-201l-64 553h170l19 -311q2 -20 2 -42t1 -55q13 36 21.5 57.5t15.5 37.5l138 313h177z" />
    <glyph glyph-name="w" unicode="w" horiz-adv-x="854" 
d="M206 553l12 -292q1 -23 0 -47.5t-3 -53.5h3q7 25 14.5 51.5t18.5 49.5l130 292h165l18 -292q1 -23 0.5 -46t-2.5 -55h2q9 32 17 55t19 46l131 292h145l-254 -553h-171l-19 285q-2 25 0.5 53.5t6.5 66.5h-2q-11 -41 -20 -68t-20 -52l-127 -285h-177l-44 553h157z" />
    <glyph glyph-name="x" unicode="x" horiz-adv-x="595" 
d="M233 553l30 -83q8 -21 16.5 -45t14.5 -54q16 27 32 51.5t31 45.5l64 85h179l-213 -264l118 -289h-175l-31 81q-21 52 -33 107q-13 -27 -32.5 -53.5t-39.5 -52.5l-63 -82h-182l224 274l-116 279h176z" />
    <glyph glyph-name="y" unicode="y" horiz-adv-x="588" 
d="M615 553l-415 -766h-179l115 213l-92 553h170l35 -289q3 -26 4 -53t0 -68q16 41 28 68t24 52l138 290h172z" />
    <glyph glyph-name="z" unicode="z" horiz-adv-x="519" 
d="M491 448l-230 -255q-17 -19 -35 -36t-39 -36h253l-22 -121h-458l20 105l230 253q16 17 34 37t39 37h-229l24 121h433z" />
    <glyph glyph-name="braceleft" unicode="{" horiz-adv-x="475" 
d="M32 413q104 0 119 77l34 179q17 85 65.5 123.5t142.5 38.5h154l-26 -133h-105q-38 0 -53.5 -15t-23.5 -53l-29 -148q-4 -21 -12.5 -42.5t-23.5 -40t-36 -32.5t-51 -20q27 -6 43 -20t23.5 -32.5t8 -40t-3.5 -42.5l-34 -174q-8 -38 6 -53t52 -15h97l-26 -133h-146
q-45 0 -77 14t-50 39.5t-22.5 61t3.5 77.5l34 175q15 77 -88 77z" />
    <glyph glyph-name="bar" unicode="|" horiz-adv-x="330" 
d="M129 -164h-134l194 995h134z" />
    <glyph glyph-name="braceright" unicode="}" horiz-adv-x="475" 
d="M436 281q-103 0 -118 -77l-38 -194q-8 -42 -21.5 -74.5t-35.5 -54t-54 -33t-77 -11.5h-175l25 133h97q38 0 58 15t28 53l34 174q4 21 12.5 42.5t23 40t35.5 32.5t50 20q-26 6 -41.5 20t-23 32.5t-8 40t3.5 42.5l29 148q8 38 -6.5 53t-52.5 15h-97l26 133h136
q101 0 137.5 -51t18.5 -145l-28 -145q-15 -77 87 -77z" />
    <glyph glyph-name="asciitilde" unicode="~" horiz-adv-x="573" 
d="M353 243q-33 0 -53.5 9.5t-36 20.5t-29.5 20.5t-33 9.5q-26 0 -38 -18t-23 -45h-136q11 34 28 70.5t41.5 66.5t59 49t79.5 19q31 0 52 -9.5t37 -20.5t30.5 -20.5t33.5 -9.5q28 0 39.5 17.5t22.5 45.5h135q-11 -37 -26.5 -73.5t-40.5 -66t-59.5 -47.5t-82.5 -18z" />
    <glyph glyph-name="uni00A0" unicode="&#xa0;" horiz-adv-x="0" 
 />
    <glyph glyph-name="exclamdown" unicode="&#xa1;" horiz-adv-x="280" 
d="M-53 -165l120 510h140l-77 -510h-183zM233 426h-159l30 159h159z" />
    <glyph glyph-name="cent" unicode="&#xa2;" horiz-adv-x="516" 
d="M507 529q-15 5 -37 8.5t-48 5.5l-62 -322q23 2 49 7t52 14l-24 -124q-43 -17 -102 -23l-18 -95h-87l17 91q-134 2 -188 68.5t-29 194.5l13 72q13 67 40 113t67 75t92.5 42t116.5 14l16 80h87l-17 -85q26 -3 48 -7.5t37 -11.5zM203 414l-13 -67q-12 -63 7 -92t75 -35
l63 323q-62 -6 -90.5 -37.5t-41.5 -91.5z" />
    <glyph glyph-name="sterling" unicode="&#xa3;" horiz-adv-x="566" 
d="M26 321l21 110h66l11 56q13 69 37.5 121t62 86.5t90 51.5t122.5 17q37 0 72.5 -5t61.5 -14l-28 -144q-16 7 -40 11t-56 4q-55 0 -93.5 -29.5t-53.5 -107.5l-10 -47h190l-21 -110h-190l-1 -6q-6 -30 -13.5 -52.5t-18.5 -41t-26.5 -34.5t-37.5 -34h337l-29 -153h-529
l21 112q25 18 44 35.5t32.5 39t23.5 51t18 71.5l2 12h-65z" />
    <glyph glyph-name="currency" unicode="&#xa4;" horiz-adv-x="728" 
d="M584 488q28 -56 28 -123q0 -35 -7.5 -66t-21.5 -58l85 -84l-91 -91l-81 81q-58 -35 -132 -35q-38 0 -70.5 9t-61.5 26l-81 -81l-91 91l85 85q-28 53 -28 123q0 69 27 122l-84 85l91 91l81 -81q28 17 61 26t71 9q37 0 70 -9t62 -26l81 81l91 -91zM364 242q53 0 83.5 34.5
t30.5 88.5t-30.5 88t-83.5 34q-52 0 -82.5 -34t-30.5 -88t30.5 -88.5t82.5 -34.5z" />
    <glyph glyph-name="yen" unicode="&#xa5;" horiz-adv-x="681" 
d="M76 329l21 106h96l-103 315h174l52 -204q8 -34 15.5 -65t14.5 -75q23 44 42 75t41 65l129 204h183l-225 -315h101l-21 -106h-155l-24 -34l-6 -32h172l-20 -106h-172l-30 -157h-178l30 157h-170l20 106h170l6 30l-12 36h-151z" />
    <glyph glyph-name="brokenbar" unicode="&#xa6;" horiz-adv-x="330" 
d="M198 216l-74 -380h-134l74 380h134zM110 451l74 380h134l-74 -380h-134z" />
    <glyph glyph-name="section" unicode="&#xa7;" horiz-adv-x="538" 
d="M114 542q0 103 66.5 151t195.5 48q54 0 96.5 -7t65.5 -14l-23 -114q-56 17 -142 17q-36 0 -57.5 -5.5t-33 -14.5t-14.5 -21t-3 -24q0 -23 14 -34t51 -22l58 -17q34 -10 56 -24.5t35 -32t18 -37t5 -40.5q0 -72 -35.5 -118t-89.5 -71q13 -20 19 -43t6 -46
q0 -103 -66.5 -151t-195.5 -48q-54 0 -96.5 7t-65.5 14l23 114q56 -17 142 -17q36 0 57.5 5.5t33 14.5t14.5 21t3 24q0 23 -14 34t-51 22l-58 17q-34 10 -56 24.5t-35 32t-18 37t-5 40.5q0 71 35 117.5t90 70.5q-14 20 -19.5 43t-5.5 47zM348 318q0 20 -11.5 31t-50.5 23
l-35 10q-26 -3 -42 -11.5t-25 -20t-12.5 -25.5t-3.5 -28q0 -20 11.5 -31t50.5 -23l35 -11q25 3 41 11.5t25.5 20t13 25.5t3.5 29z" />
    <glyph glyph-name="dieresis" unicode="&#xa8;" horiz-adv-x="582" 
d="M205 738h112l-24 -126h-112zM395 738h112l-24 -126h-112z" />
    <glyph glyph-name="copyright" unicode="&#xa9;" horiz-adv-x="840" 
d="M419 32q65 0 119.5 22.5t94 62.5t61.5 96t22 122q0 67 -22 122.5t-62 95.5t-94.5 62t-118.5 22t-118 -22t-93.5 -62t-61.5 -95.5t-22 -122.5q0 -66 22 -122t61.5 -96t93.5 -62.5t118 -22.5zM419 -40q-82 0 -150.5 29.5t-117.5 80.5t-76.5 119t-27.5 146t27.5 146
t76.5 118.5t117.5 80t150.5 29.5q83 0 152 -29.5t118.5 -80t76.5 -118.5t27 -146t-27.5 -146t-77 -119t-118 -80.5t-151.5 -29.5zM569 433q-17 5 -43.5 9t-58.5 4q-49 0 -70 -20t-21 -70v-44q0 -26 5 -43t16.5 -26.5t29 -13t42.5 -3.5q24 0 51 3t56 14v-100q-12 -5 -28.5 -9
t-34.5 -6.5t-35.5 -4t-30.5 -1.5q-100 0 -153.5 44.5t-53.5 141.5v47q0 100 55.5 145.5t150.5 45.5q32 0 66.5 -4.5t56.5 -13.5v-95z" />
    <glyph glyph-name="ordfeminine" unicode="&#xaa;" horiz-adv-x="489" 
d="M432 289h-113l-5 42q-23 -19 -61.5 -35t-89.5 -16q-65 0 -97 35.5t-18 108.5l6 31q7 38 23.5 63.5t43.5 40.5t65.5 21.5t91.5 6.5h65l5 20q8 31 -2 43t-52 12q-12 0 -30.5 -1.5t-39 -5.5t-42.5 -9.5t-42 -12.5l22 113q38 12 80.5 20t80.5 8q57 0 93.5 -12.5t56 -36
t23.5 -57t-4 -75.5zM325 490h-51q-32 0 -49.5 -6.5t-23.5 -36.5l-3 -16q-5 -24 4.5 -33t28.5 -9q17 0 39 4.5t39 17.5z" />
    <glyph glyph-name="guillemotleft" unicode="&#xab;" horiz-adv-x="581" 
d="M-4 245l11 60l202 194h147l-227 -225l-1 -5l139 -221h-139zM220 245l11 60l202 194h147l-227 -225l-1 -5l139 -221h-139z" />
    <glyph glyph-name="logicalnot" unicode="&#xac;" horiz-adv-x="582" 
d="M55 398h473l-57 -290h-113l35 181h-360z" />
    <glyph glyph-name="uni00AD" unicode="&#xad;" horiz-adv-x="808" 
 />
    <glyph glyph-name="registered" unicode="&#xae;" horiz-adv-x="628" 
d="M314 232q44 0 81 16t64 43.5t42 65.5t15 83t-15.5 83t-42.5 65.5t-64 43t-80 15.5t-79.5 -15.5t-63.5 -43t-42 -65.5t-15 -83t15 -83t42 -65.5t63.5 -43.5t79.5 -16zM313 170q-59 0 -108.5 21t-85 58t-55 86t-19.5 105t19.5 105t55 86t85 58t108.5 21q60 0 110 -21
t85.5 -58t55 -86t19.5 -105t-19.5 -105t-55.5 -86t-85.5 -58t-109.5 -21zM209 584h110q23 0 43 -3t35 -11.5t23.5 -23.5t8.5 -38v-24q0 -51 -38 -70l54 -114h-86l-41 98h-29v-98h-80v284zM289 527v-70h22q19 0 28 5.5t9 23.5v13q0 17 -8 22.5t-24 5.5h-27z" />
    <glyph glyph-name="macron" unicode="&#xaf;" horiz-adv-x="582" 
d="M210 735h296l-22 -110h-296z" />
    <glyph glyph-name="degree" unicode="&#xb0;" horiz-adv-x="401" 
d="M232 502q34 0 59.5 25.5t25.5 64.5q0 26 -14.5 41.5t-43.5 15.5q-34 0 -59.5 -25.5t-25.5 -64.5q0 -26 15.5 -41.5t42.5 -15.5zM214 417q-61 0 -96 37t-35 92q0 38 14 72t39.5 60t61 41t79.5 15q61 0 96 -37t35 -92q0 -38 -14 -72t-39.5 -60t-61.5 -41t-79 -15z" />
    <glyph glyph-name="plusminus" unicode="&#xb1;" horiz-adv-x="568" 
d="M-12 144h179l31 157h-180l27 132h179l35 176h140l-35 -176h181l-27 -132h-180l-31 -157h181l-26 -132h-500z" />
    <glyph glyph-name="twosuperior" unicode="&#xb2;" horiz-adv-x="407" 
d="M6 289l18 92l191 159q24 20 33 32.5t14 31.5l2 9q4 23 -6 37t-49 14q-26 0 -57 -6.5t-58 -17.5l21 109q28 11 64.5 18t68.5 7q49 0 82 -11.5t51.5 -31t24.5 -45.5t0 -55l-3 -17q-4 -21 -11 -37t-18.5 -31.5t-29.5 -32t-45 -38.5l-92 -75h166l-23 -111h-344z" />
    <glyph glyph-name="threesuperior" unicode="&#xb3;" horiz-adv-x="393" 
d="M125 485l19 98h52q40 0 55.5 11t15.5 45q0 15 -11 21t-43 6q-28 0 -62 -6t-64 -16l21 106q26 10 66.5 17t78.5 7q43 0 72.5 -8t47.5 -23t26 -35.5t8 -45.5q0 -11 -2 -28.5t-11 -37t-28 -36.5t-53 -26q35 -11 50.5 -34t15.5 -54q0 -90 -57 -128t-170 -38q-42 0 -82 7.5
t-62 15.5l21 107q28 -11 64 -16t68 -5q42 0 63 13t21 51q0 19 -14 25.5t-55 6.5h-51z" />
    <glyph glyph-name="acute" unicode="&#xb4;" horiz-adv-x="582" 
d="M328 748h178l-142 -147h-152z" />
    <glyph glyph-name="mu" unicode="&#xb5;" horiz-adv-x="609" 
d="M91 553h170l-69 -354q-14 -72 50 -72q27 0 48 9t43 24l76 393h170l-107 -553h-126l-4 47q-15 -20 -42 -39.5t-71 -19.5q-25 0 -45 8.5t-27 26.5l-46 -239h-170z" />
    <glyph glyph-name="paragraph" unicode="&#xb6;" horiz-adv-x="568" 
d="M582 750l-169 -872h-119l147 761h-55l-147 -761h-120l87 449q-50 1 -83 17.5t-51.5 45t-23 66.5t4.5 81l8 41q34 172 243 172h278z" />
    <glyph glyph-name="periodcentered" unicode="&#xb7;" horiz-adv-x="275" 
d="M69 440h169l-31 -162h-169z" />
    <glyph glyph-name="cedilla" unicode="&#xb8;" horiz-adv-x="582" 
d="M161 -273q-20 0 -45.5 2t-45.5 6l17 84q14 -2 33.5 -3.5t43.5 -1.5q37 0 52 9.5t18 23.5l2 10q4 17 -8.5 26.5t-59.5 9.5h-25l27 138h104l-15 -78q30 -3 49 -12t28.5 -23t11.5 -32t-2 -38l-3 -15q-6 -31 -20.5 -51.5t-37.5 -32.5t-54 -17t-70 -5z" />
    <glyph glyph-name="onesuperior" unicode="&#xb9;" horiz-adv-x="398" 
d="M32 289l21 104h103l46 240l-116 -50l22 110l162 74h93l-73 -374h88l-21 -104h-325z" />
    <glyph glyph-name="ordmasculine" unicode="&#xba;" horiz-adv-x="518" 
d="M254 280q-54 0 -95 14.5t-66.5 43t-34 70t2.5 94.5l14 68q21 103 81 153.5t169 50.5q55 0 96.5 -15t67.5 -43.5t34.5 -69.5t-1.5 -92l-14 -68q-22 -107 -82.5 -156.5t-171.5 -49.5zM315 654q-36 0 -58 -21.5t-33 -78.5l-10 -54q-11 -57 2.5 -78.5t49.5 -21.5
q38 0 59 21.5t32 78.5l10 54q11 57 -1.5 78.5t-50.5 21.5z" />
    <glyph glyph-name="guillemotright" unicode="&#xbb;" horiz-adv-x="581" 
d="M548 302l-11 -60l-202 -194h-147l227 225l1 5l-139 221h139zM324 302l-11 -60l-202 -194h-147l227 225l1 5l-139 221h139z" />
    <glyph glyph-name="onequarter" unicode="&#xbc;" horiz-adv-x="930" 
d="M441 4l19 94l259 303h148l-59 -302h59l-20 -95h-59l-15 -81h-122l15 81h-225zM686 99l32 168l-143 -168h111zM32 289l21 104h103l46 240l-116 -50l22 110l162 74h93l-73 -374h88l-21 -104h-325zM86 -80l706 853h133l-709 -853h-130z" />
    <glyph glyph-name="onehalf" unicode="&#xbd;" horiz-adv-x="945" 
d="M32 289l21 104h103l46 240l-116 -50l22 110l162 74h93l-73 -374h88l-21 -104h-325zM86 -80l706 853h133l-709 -853h-130zM519 -77l18 92l191 159q24 20 33 32.5t14 31.5l2 9q4 23 -6 37t-49 14q-26 0 -57 -6.5t-58 -17.5l21 109q28 11 64.5 18t68.5 7q49 0 82 -11.5
t51.5 -31t24.5 -45.5t0 -55l-3 -17q-4 -21 -11 -37t-18.5 -31.5t-29.5 -32t-45 -38.5l-92 -75h166l-23 -111h-344z" />
    <glyph glyph-name="threequarters" unicode="&#xbe;" horiz-adv-x="912" 
d="M423 4l19 94l259 303h148l-59 -302h59l-20 -95h-59l-15 -81h-122l15 81h-225zM68 -80l706 853h133l-709 -853h-130zM125 485l19 98h52q40 0 55.5 11t15.5 45q0 15 -11 21t-43 6q-28 0 -62 -6t-64 -16l21 106q26 10 66.5 17t78.5 7q43 0 72.5 -8t47.5 -23t26 -35.5
t8 -45.5q0 -11 -2 -28.5t-11 -37t-28 -36.5t-53 -26q35 -11 50.5 -34t15.5 -54q0 -90 -57 -128t-170 -38q-42 0 -82 7.5t-62 15.5l21 107q28 -11 64 -16t68 -5q42 0 63 13t21 51q0 19 -14 25.5t-55 6.5h-51zM668 99l32 168l-143 -168h111z" />
    <glyph glyph-name="questiondown" unicode="&#xbf;" horiz-adv-x="490" 
d="M373 348l-10 -50q-5 -27 -12 -46.5t-21 -37.5t-36.5 -35.5t-59.5 -39.5q-24 -14 -41.5 -25t-29 -24.5t-17 -32t-5.5 -48.5q0 -29 22 -40.5t77 -11.5q42 0 87 9.5t87 24.5l-24 -125q-38 -16 -89 -27t-104 -11q-62 0 -103.5 12t-66.5 34t-35.5 51t-10.5 64q0 61 14.5 100
t36 63.5t46 39t44.5 27.5q31 19 50 32t29.5 23t15 19.5t7.5 22.5l7 32h142zM396 426h-159l30 159h159z" />
    <glyph glyph-name="Agrave" unicode="&#xc0;" horiz-adv-x="726" 
d="M538 750l111 -750h-187l-20 162h-236l-82 -162h-187l394 750h207zM274 310h155l-15 162q-2 17 -3 31.5t-2 29.5t-1 31.5t1 36.5q-6 -20 -12.5 -36t-13 -31t-14 -29.5t-15.5 -32.5zM515 801h-141l-96 147h167z" />
    <glyph glyph-name="Aacute" unicode="&#xc1;" horiz-adv-x="739" 
d="M538 750l111 -750h-187l-20 162h-236l-82 -162h-187l394 750h207zM274 310h155l-15 162q-2 17 -3 31.5t-2 29.5t-1 31.5t1 36.5q-6 -20 -12.5 -36t-13 -31t-14 -29.5t-15.5 -32.5zM484 948h178l-142 -147h-152z" />
    <glyph glyph-name="Acircumflex" unicode="&#xc2;" horiz-adv-x="726" 
d="M538 750l111 -750h-187l-20 162h-236l-82 -162h-187l394 750h207zM274 310h155l-15 162q-2 17 -3 31.5t-2 29.5t-1 31.5t1 36.5q-6 -20 -12.5 -36t-13 -31t-14 -29.5t-15.5 -32.5zM415 967h117l74 -170h-105l-41 76l-74 -76h-113z" />
    <glyph glyph-name="Atilde" unicode="&#xc3;" horiz-adv-x="726" 
d="M538 750l111 -750h-187l-20 162h-236l-82 -162h-187l394 750h207zM274 310h155l-15 162q-2 17 -3 31.5t-2 29.5t-1 31.5t1 36.5q-6 -20 -12.5 -36t-13 -31t-14 -29.5t-15.5 -32.5zM496 799q-25 0 -39.5 7t-24 16t-17.5 16t-20 7q-16 0 -25.5 -13t-16.5 -33h-96
q7 25 18.5 51.5t28 48.5t38.5 36t51 14q26 0 41.5 -7t26 -16t18.5 -16t19 -7q18 0 26 14t13 34h96q-7 -24 -17 -50.5t-26 -49t-39 -37.5t-55 -15z" />
    <glyph glyph-name="Adieresis" unicode="&#xc4;" horiz-adv-x="726" 
d="M538 750l111 -750h-187l-20 162h-236l-82 -162h-187l394 750h207zM274 310h155l-15 162q-2 17 -3 31.5t-2 29.5t-1 31.5t1 36.5q-6 -20 -12.5 -36t-13 -31t-14 -29.5t-15.5 -32.5zM322 938h112l-24 -126h-112zM512 938h112l-24 -126h-112z" />
    <glyph glyph-name="Aring" unicode="&#xc5;" horiz-adv-x="726" 
d="M538 750l111 -750h-187l-20 162h-236l-82 -162h-187l394 750h207zM274 310h155l-15 162q-2 17 -3 31.5t-2 29.5t-1 31.5t1 36.5q-6 -20 -12.5 -36t-13 -31t-14 -29.5t-15.5 -32.5zM456 850q20 0 35.5 15t15.5 39q0 15 -9 24t-24 9q-20 0 -35.5 -15t-15.5 -39q0 -15 9 -24
t24 -9zM487 1005q42 0 67 -24.5t25 -65.5q0 -29 -11.5 -53.5t-30 -42t-43 -27.5t-51.5 -10q-42 0 -67 24.5t-25 65.5q0 29 11.5 53.5t30 42t43 27.5t51.5 10z" />
    <glyph glyph-name="AE" unicode="&#xc6;" horiz-adv-x="1045" 
d="M1076 750l-27 -143h-322l-30 -154h290l-28 -142h-290l-33 -168h337l-27 -143h-510l31 162h-217l-123 -162h-197l583 750h563zM475 472l-119 -162h140l53 278q-17 -31 -34.5 -59t-39.5 -57z" />
    <glyph glyph-name="Ccedilla" unicode="&#xc7;" horiz-adv-x="622" 
d="M213 -273q-20 0 -45.5 2t-45.5 6l17 84q14 -2 33.5 -3.5t43.5 -1.5q37 0 52 9.5t18 23.5l2 10q4 17 -8.5 26.5t-59.5 9.5h-25l20 104q-123 19 -164.5 102.5t-11.5 235.5l23 118q18 93 50.5 152.5t81 94t113 47.5t146.5 13q28 0 55.5 -1.5t53 -5t47.5 -8t38 -10.5
l-30 -148q-35 8 -79 12.5t-91 4.5q-54 0 -90 -10.5t-59.5 -31t-37 -51t-21.5 -70.5l-24 -125q-9 -44 -7.5 -75.5t17 -52.5t47.5 -31t85 -10q40 0 90 4.5t101 18.5l-30 -150q-21 -8 -46.5 -13.5t-52 -9t-52.5 -5.5t-49 -2l-7 -37q30 -3 49 -12t28.5 -23t11.5 -32t-2 -38
l-3 -15q-6 -31 -20.5 -51.5t-37.5 -32.5t-54 -17t-70 -5z" />
    <glyph glyph-name="Egrave" unicode="&#xc8;" 
d="M635 750l-27 -143h-322l-30 -154h290l-28 -142h-290l-33 -168h336l-27 -143h-514l145 750h500zM505 801h-141l-96 147h167z" />
    <glyph glyph-name="Eacute" unicode="&#xc9;" 
d="M635 750l-27 -143h-322l-30 -154h290l-28 -142h-290l-33 -168h336l-27 -143h-514l145 750h500zM431 948h178l-142 -147h-152z" />
    <glyph glyph-name="Ecircumflex" unicode="&#xca;" 
d="M635 750l-27 -143h-322l-30 -154h290l-28 -142h-290l-33 -168h336l-27 -143h-514l145 750h500zM383 967h117l74 -170h-105l-41 76l-74 -76h-113z" />
    <glyph glyph-name="Edieresis" unicode="&#xcb;" 
d="M635 750l-27 -143h-322l-30 -154h290l-28 -142h-290l-33 -168h336l-27 -143h-514l145 750h500zM290 938h112l-24 -126h-112zM480 938h112l-24 -126h-112z" />
    <glyph glyph-name="Igrave" unicode="&#xcc;" horiz-adv-x="303" 
d="M168 0h-178l145 750h178zM300 801h-141l-96 147h167z" />
    <glyph glyph-name="Iacute" unicode="&#xcd;" horiz-adv-x="303" 
d="M168 0h-178l145 750h178zM270 948h178l-142 -147h-152z" />
    <glyph glyph-name="Icircumflex" unicode="&#xce;" horiz-adv-x="303" 
d="M168 0h-178l145 750h178zM205 967h117l74 -170h-105l-41 76l-74 -76h-113z" />
    <glyph glyph-name="Idieresis" unicode="&#xcf;" horiz-adv-x="303" 
d="M168 0h-178l145 750h178zM111 938h112l-24 -126h-112zM301 938h112l-24 -126h-112z" />
    <glyph glyph-name="Eth" unicode="&#xd0;" horiz-adv-x="724" 
d="M12 440h79l60 310h282q79 0 137 -17t92.5 -53t44.5 -92.5t-6 -135.5l-35 -188q-14 -74 -38.5 -124.5t-64 -81.5t-97 -44.5t-136.5 -13.5h-324l63 329h-79zM299 599l-31 -159h159l-22 -111h-159l-34 -178h109q46 0 76.5 9.5t49.5 28.5t29.5 47.5t18.5 66.5l29 148
q7 35 7.5 62.5t-10.5 46.5t-36.5 29t-70.5 10h-115z" />
    <glyph glyph-name="Ntilde" unicode="&#xd1;" horiz-adv-x="723" 
d="M593 0h-178l-142 400q-11 29 -16 55.5t-9 54.5l-95 -510h-163l142 750h177l141 -397q9 -26 14.5 -49.5t10.5 -52.5l95 499h163zM508 799q-25 0 -39.5 7t-24 16t-17.5 16t-20 7q-16 0 -25.5 -13t-16.5 -33h-96q7 25 18.5 51.5t28 48.5t38.5 36t51 14q26 0 41.5 -7t26 -16
t18.5 -16t19 -7q18 0 26 14t13 34h96q-7 -24 -17 -50.5t-26 -49t-39 -37.5t-55 -15z" />
    <glyph glyph-name="Ograve" unicode="&#xd2;" horiz-adv-x="742" 
d="M685 291q-32 -162 -127.5 -233t-256.5 -71q-78 0 -136 23t-93 67.5t-45.5 108.5t5.5 145l25 128q16 81 49 138.5t82 94t112.5 54t139.5 17.5q79 0 137.5 -23.5t93 -68t45 -108t-5.5 -144.5zM530 423q20 97 -8 140t-106 43q-79 0 -124.5 -43t-63.5 -140l-18 -96
q-19 -97 9 -140t107 -43q78 0 122.5 43t63.5 140zM534 801h-141l-96 147h167z" />
    <glyph glyph-name="Oacute" unicode="&#xd3;" horiz-adv-x="742" 
d="M685 291q-32 -162 -127.5 -233t-256.5 -71q-78 0 -136 23t-93 67.5t-45.5 108.5t5.5 145l25 128q16 81 49 138.5t82 94t112.5 54t139.5 17.5q79 0 137.5 -23.5t93 -68t45 -108t-5.5 -144.5zM530 423q20 97 -8 140t-106 43q-79 0 -124.5 -43t-63.5 -140l-18 -96
q-19 -97 9 -140t107 -43q78 0 122.5 43t63.5 140zM481 948h178l-142 -147h-152z" />
    <glyph glyph-name="Ocircumflex" unicode="&#xd4;" horiz-adv-x="742" 
d="M685 291q-32 -162 -127.5 -233t-256.5 -71q-78 0 -136 23t-93 67.5t-45.5 108.5t5.5 145l25 128q16 81 49 138.5t82 94t112.5 54t139.5 17.5q79 0 137.5 -23.5t93 -68t45 -108t-5.5 -144.5zM530 423q20 97 -8 140t-106 43q-79 0 -124.5 -43t-63.5 -140l-18 -96
q-19 -97 9 -140t107 -43q78 0 122.5 43t63.5 140zM419 967h117l74 -170h-105l-41 76l-74 -76h-113z" />
    <glyph glyph-name="Otilde" unicode="&#xd5;" horiz-adv-x="742" 
d="M685 291q-32 -162 -127.5 -233t-256.5 -71q-78 0 -136 23t-93 67.5t-45.5 108.5t5.5 145l25 128q16 81 49 138.5t82 94t112.5 54t139.5 17.5q79 0 137.5 -23.5t93 -68t45 -108t-5.5 -144.5zM530 423q20 97 -8 140t-106 43q-79 0 -124.5 -43t-63.5 -140l-18 -96
q-19 -97 9 -140t107 -43q78 0 122.5 43t63.5 140zM511 799q-25 0 -39.5 7t-24 16t-17.5 16t-20 7q-16 0 -25.5 -13t-16.5 -33h-96q7 25 18.5 51.5t28 48.5t38.5 36t51 14q26 0 41.5 -7t26 -16t18.5 -16t19 -7q18 0 26 14t13 34h96q-7 -24 -17 -50.5t-26 -49t-39 -37.5
t-55 -15z" />
    <glyph glyph-name="Odieresis" unicode="&#xd6;" horiz-adv-x="742" 
d="M685 291q-32 -162 -127.5 -233t-256.5 -71q-78 0 -136 23t-93 67.5t-45.5 108.5t5.5 145l25 128q16 81 49 138.5t82 94t112.5 54t139.5 17.5q79 0 137.5 -23.5t93 -68t45 -108t-5.5 -144.5zM530 423q20 97 -8 140t-106 43q-79 0 -124.5 -43t-63.5 -140l-18 -96
q-19 -97 9 -140t107 -43q78 0 122.5 43t63.5 140zM325 938h112l-24 -126h-112zM515 938h112l-24 -126h-112z" />
    <glyph glyph-name="multiply" unicode="&#xd7;" horiz-adv-x="595" 
d="M197 579l107 -146l170 146l70 -90l-172 -148l112 -151l-100 -77l-108 146l-169 -146l-71 90l172 148l-111 151z" />
    <glyph glyph-name="Oslash" unicode="&#xd8;" horiz-adv-x="735" 
d="M690 291q-32 -162 -130.5 -233t-259.5 -71q-49 0 -90 9.5t-74 26.5l-56 -66h-133l112 132q-63 89 -33 242l25 128q16 81 50 138.5t83.5 94t114 54t140.5 17.5q99 0 165 -36l55 65h133l-112 -131q31 -45 40.5 -105.5t-5.5 -136.5zM415 606q-79 0 -127 -43t-66 -140
l-18 -96q-9 -43 -7 -77l291 342q-30 14 -73 14zM535 423q7 42 6 75l-290 -341q27 -13 74 -13q78 0 125.5 43t66.5 140z" />
    <glyph glyph-name="Ugrave" unicode="&#xd9;" horiz-adv-x="745" 
d="M318 750l-81 -423q-10 -51 -8 -84.5t15 -53.5t38 -28t62 -8t64 8t46 28t32 53.5t23 84.5l81 423h179l-94 -484q-15 -76 -42.5 -129t-68.5 -86.5t-97 -48.5t-129 -15q-80 0 -140 20t-97.5 59.5t-50 98t2.5 135.5l87 450h178zM531 801h-141l-96 147h167z" />
    <glyph glyph-name="Uacute" unicode="&#xda;" horiz-adv-x="745" 
d="M318 750l-81 -423q-10 -51 -8 -84.5t15 -53.5t38 -28t62 -8t64 8t46 28t32 53.5t23 84.5l81 423h179l-94 -484q-15 -76 -42.5 -129t-68.5 -86.5t-97 -48.5t-129 -15q-80 0 -140 20t-97.5 59.5t-50 98t2.5 135.5l87 450h178zM505 948h178l-142 -147h-152z" />
    <glyph glyph-name="Ucircumflex" unicode="&#xdb;" horiz-adv-x="745" 
d="M318 750l-81 -423q-10 -51 -8 -84.5t15 -53.5t38 -28t62 -8t64 8t46 28t32 53.5t23 84.5l81 423h179l-94 -484q-15 -76 -42.5 -129t-68.5 -86.5t-97 -48.5t-129 -15q-80 0 -140 20t-97.5 59.5t-50 98t2.5 135.5l87 450h178zM432 967h117l74 -170h-105l-41 76l-74 -76
h-113z" />
    <glyph glyph-name="Udieresis" unicode="&#xdc;" horiz-adv-x="745" 
d="M318 750l-81 -423q-10 -51 -8 -84.5t15 -53.5t38 -28t62 -8t64 8t46 28t32 53.5t23 84.5l81 423h179l-94 -484q-15 -76 -42.5 -129t-68.5 -86.5t-97 -48.5t-129 -15q-80 0 -140 20t-97.5 59.5t-50 98t2.5 135.5l87 450h178zM337 938h112l-24 -126h-112zM527 938h112
l-24 -126h-112z" />
    <glyph glyph-name="Yacute" unicode="&#xdd;" horiz-adv-x="659" 
d="M393 295l-56 -295h-178l56 293l-151 457h181l53 -188q9 -33 16 -64.5t13 -75.5q22 44 41 75.5t41 64.5l124 188h186zM431 948h178l-142 -147h-152z" />
    <glyph glyph-name="Thorn" unicode="&#xde;" horiz-adv-x="622" 
d="M135 750h178l-25 -132h119q60 0 105.5 -10.5t74.5 -35.5t39.5 -66.5t-1.5 -102.5l-17 -86q-11 -57 -33.5 -91t-58.5 -53t-87.5 -25t-120.5 -6h-113l-27 -142h-178zM262 489l-42 -217h78q34 0 57.5 3.5t40 13t26 27t14.5 45.5l9 46q9 45 -10.5 63.5t-77.5 18.5h-95z" />
    <glyph glyph-name="germandbls" unicode="&#xdf;" horiz-adv-x="602" 
d="M230 127h45q48 0 72.5 24.5t32.5 69.5l4 20q6 29 4 47.5t-12 29t-29 14.5t-47 4h-27l24 122h26q22 0 37 7t25 19t16 27t9 31l4 18q8 39 -5.5 59t-51.5 20q-32 0 -55 -20.5t-33 -69.5l-106 -549h-173l109 561q22 113 90.5 163t177.5 50q66 0 110 -18t69.5 -47t34 -66
t1.5 -75l-4 -22q-9 -48 -41.5 -89.5t-86.5 -57.5q36 -7 59 -22t35.5 -36.5t15.5 -47.5t-3 -55l-8 -43q-18 -98 -82 -146.5t-191 -48.5h-69z" />
    <glyph glyph-name="agrave" unicode="&#xe0;" horiz-adv-x="568" 
d="M446 0h-128l-6 50q-35 -25 -80.5 -42.5t-101.5 -17.5q-37 0 -66 10t-47 30.5t-24 51.5t2 73l7 38q9 47 28 77t51 46.5t77.5 22.5t107.5 6h80l6 30q4 21 3.5 35t-8 22t-23 11t-40.5 3q-14 0 -35 -2t-45 -6.5t-49.5 -10.5t-49.5 -15l24 122q44 16 98.5 24.5t96.5 8.5
q66 0 107.5 -15.5t63 -43t25.5 -66.5t-5 -87zM326 240h-64q-18 0 -34 -0.5t-28 -5.5t-21 -15.5t-13 -31.5l-4 -23q-12 -54 41 -54q23 0 52.5 8t51.5 25zM437 601h-141l-96 147h167z" />
    <glyph glyph-name="aacute" unicode="&#xe1;" horiz-adv-x="568" 
d="M446 0h-128l-6 50q-35 -25 -80.5 -42.5t-101.5 -17.5q-37 0 -66 10t-47 30.5t-24 51.5t2 73l7 38q9 47 28 77t51 46.5t77.5 22.5t107.5 6h80l6 30q4 21 3.5 35t-8 22t-23 11t-40.5 3q-14 0 -35 -2t-45 -6.5t-49.5 -10.5t-49.5 -15l24 122q44 16 98.5 24.5t96.5 8.5
q66 0 107.5 -15.5t63 -43t25.5 -66.5t-5 -87zM326 240h-64q-18 0 -34 -0.5t-28 -5.5t-21 -15.5t-13 -31.5l-4 -23q-12 -54 41 -54q23 0 52.5 8t51.5 25zM371 748h178l-142 -147h-152z" />
    <glyph glyph-name="acircumflex" unicode="&#xe2;" horiz-adv-x="568" 
d="M446 0h-128l-6 50q-35 -25 -80.5 -42.5t-101.5 -17.5q-37 0 -66 10t-47 30.5t-24 51.5t2 73l7 38q9 47 28 77t51 46.5t77.5 22.5t107.5 6h80l6 30q4 21 3.5 35t-8 22t-23 11t-40.5 3q-14 0 -35 -2t-45 -6.5t-49.5 -10.5t-49.5 -15l24 122q44 16 98.5 24.5t96.5 8.5
q66 0 107.5 -15.5t63 -43t25.5 -66.5t-5 -87zM326 240h-64q-18 0 -34 -0.5t-28 -5.5t-21 -15.5t-13 -31.5l-4 -23q-12 -54 41 -54q23 0 52.5 8t51.5 25zM310 767h117l74 -170h-105l-41 76l-74 -76h-113z" />
    <glyph glyph-name="atilde" unicode="&#xe3;" horiz-adv-x="568" 
d="M446 0h-128l-6 50q-35 -25 -80.5 -42.5t-101.5 -17.5q-37 0 -66 10t-47 30.5t-24 51.5t2 73l7 38q9 47 28 77t51 46.5t77.5 22.5t107.5 6h80l6 30q4 21 3.5 35t-8 22t-23 11t-40.5 3q-14 0 -35 -2t-45 -6.5t-49.5 -10.5t-49.5 -15l24 122q44 16 98.5 24.5t96.5 8.5
q66 0 107.5 -15.5t63 -43t25.5 -66.5t-5 -87zM326 240h-64q-18 0 -34 -0.5t-28 -5.5t-21 -15.5t-13 -31.5l-4 -23q-12 -54 41 -54q23 0 52.5 8t51.5 25zM401 599q-25 0 -39.5 7t-24 16t-17.5 16t-20 7q-16 0 -25.5 -13t-16.5 -33h-96q7 25 18.5 51.5t28 48.5t38.5 36t51 14
q26 0 41.5 -7t26 -16t18.5 -16t19 -7q18 0 26 14t13 34h96q-7 -24 -17 -50.5t-26 -49t-39 -37.5t-55 -15z" />
    <glyph glyph-name="adieresis" unicode="&#xe4;" horiz-adv-x="568" 
d="M446 0h-128l-6 50q-35 -25 -80.5 -42.5t-101.5 -17.5q-37 0 -66 10t-47 30.5t-24 51.5t2 73l7 38q9 47 28 77t51 46.5t77.5 22.5t107.5 6h80l6 30q4 21 3.5 35t-8 22t-23 11t-40.5 3q-14 0 -35 -2t-45 -6.5t-49.5 -10.5t-49.5 -15l24 122q44 16 98.5 24.5t96.5 8.5
q66 0 107.5 -15.5t63 -43t25.5 -66.5t-5 -87zM326 240h-64q-18 0 -34 -0.5t-28 -5.5t-21 -15.5t-13 -31.5l-4 -23q-12 -54 41 -54q23 0 52.5 8t51.5 25zM208 738h112l-24 -126h-112zM398 738h112l-24 -126h-112z" />
    <glyph glyph-name="aring" unicode="&#xe5;" horiz-adv-x="568" 
d="M446 0h-128l-6 50q-35 -25 -80.5 -42.5t-101.5 -17.5q-37 0 -66 10t-47 30.5t-24 51.5t2 73l7 38q9 47 28 77t51 46.5t77.5 22.5t107.5 6h80l6 30q4 21 3.5 35t-8 22t-23 11t-40.5 3q-14 0 -35 -2t-45 -6.5t-49.5 -10.5t-49.5 -15l24 122q44 16 98.5 24.5t96.5 8.5
q66 0 107.5 -15.5t63 -43t25.5 -66.5t-5 -87zM326 240h-64q-18 0 -34 -0.5t-28 -5.5t-21 -15.5t-13 -31.5l-4 -23q-12 -54 41 -54q23 0 52.5 8t51.5 25zM341 650q20 0 35.5 15t15.5 39q0 15 -9 24t-24 9q-20 0 -35.5 -15t-15.5 -39q0 -15 9 -24t24 -9zM372 805
q42 0 67 -24.5t25 -65.5q0 -29 -11.5 -53.5t-30 -42t-43 -27.5t-51.5 -10q-42 0 -67 24.5t-25 65.5q0 29 11.5 53.5t30 42t43 27.5t51.5 10z" />
    <glyph glyph-name="ae" unicode="&#xe6;" horiz-adv-x="885" 
d="M824 233h-338l-2 -13q-9 -59 19 -83.5t94 -24.5q33 0 78 6t86 20l-23 -118q-33 -15 -79.5 -23t-91.5 -8q-69 0 -110 19t-68 56q-48 -32 -109.5 -53t-138.5 -21q-37 0 -67.5 10t-51 31t-28 52t0.5 73l7 38q9 45 30.5 73t56 43.5t82.5 21t110 5.5h65l7 38q4 21 3.5 35
t-8 22t-23 11t-40.5 3q-14 0 -35 -2t-45 -6.5t-49.5 -10.5t-49.5 -15l24 122q45 14 97.5 23.5t100.5 9.5q61 0 97.5 -14t51.5 -46q32 31 76 45.5t93 14.5q52 0 93.5 -16.5t67 -48.5t34.5 -80.5t-3 -112.5zM684 337l3 17q15 88 -71 88q-44 0 -72.5 -23.5t-35.5 -68.5l-2 -13
h178zM325 232h-66q-37 0 -62 -8.5t-31 -44.5l-3 -17q-5 -28 4 -40t37 -12q23 0 52.5 8t51.5 25z" />
    <glyph glyph-name="ccedilla" unicode="&#xe7;" horiz-adv-x="526" 
d="M154 -273q-20 0 -45.5 2t-45.5 6l17 84q14 -2 33.5 -3.5t43.5 -1.5q37 0 52 9.5t18 23.5l2 10q4 17 -8.5 26.5t-59.5 9.5h-25l20 102q-97 20 -129.5 89.5t-10.5 181.5l14 72q13 67 39.5 111t66 70.5t93 37t119.5 10.5q21 0 43 -1.5t43.5 -4.5t40 -7.5t31.5 -10.5
l-24 -123q-22 7 -55.5 12.5t-74.5 5.5q-37 0 -63.5 -7t-45.5 -22.5t-30.5 -39.5t-17.5 -58l-14 -67q-7 -36 -4.5 -60t15.5 -38t37 -20t61 -6q32 0 69 5t79 19l-25 -129q-15 -6 -34.5 -10.5t-40 -7.5t-41 -5t-38.5 -3l-7 -36q30 -3 49 -12t28.5 -23t11.5 -32t-2 -38l-3 -15
q-6 -31 -20.5 -51.5t-37.5 -32.5t-54 -17t-70 -5z" />
    <glyph glyph-name="egrave" unicode="&#xe8;" horiz-adv-x="574" 
d="M512 219h-338l-2 -11q-5 -29 0 -47.5t19.5 -29.5t39 -15t57.5 -4q32 0 77.5 6t86.5 20l-23 -118q-17 -8 -39 -13.5t-46 -9.5t-49 -6t-47 -2q-142 0 -201 66.5t-33 199.5l14 70q13 69 40.5 115.5t65 74.5t83.5 40t97 12q56 0 101.5 -15t75 -48.5t39.5 -87t-5 -130.5z
M371 323l4 21q9 46 -7.5 72t-63.5 26q-44 0 -70.5 -26t-35.5 -74l-4 -19h177zM419 601h-141l-96 147h167z" />
    <glyph glyph-name="eacute" unicode="&#xe9;" horiz-adv-x="574" 
d="M512 219h-338l-2 -11q-5 -29 0 -47.5t19.5 -29.5t39 -15t57.5 -4q32 0 77.5 6t86.5 20l-23 -118q-17 -8 -39 -13.5t-46 -9.5t-49 -6t-47 -2q-142 0 -201 66.5t-33 199.5l14 70q13 69 40.5 115.5t65 74.5t83.5 40t97 12q56 0 101.5 -15t75 -48.5t39.5 -87t-5 -130.5z
M371 323l4 21q9 46 -7.5 72t-63.5 26q-44 0 -70.5 -26t-35.5 -74l-4 -19h177zM374 748h178l-142 -147h-152z" />
    <glyph glyph-name="ecircumflex" unicode="&#xea;" horiz-adv-x="574" 
d="M512 219h-338l-2 -11q-5 -29 0 -47.5t19.5 -29.5t39 -15t57.5 -4q32 0 77.5 6t86.5 20l-23 -118q-17 -8 -39 -13.5t-46 -9.5t-49 -6t-47 -2q-142 0 -201 66.5t-33 199.5l14 70q13 69 40.5 115.5t65 74.5t83.5 40t97 12q56 0 101.5 -15t75 -48.5t39.5 -87t-5 -130.5z
M371 323l4 21q9 46 -7.5 72t-63.5 26q-44 0 -70.5 -26t-35.5 -74l-4 -19h177zM303 767h117l74 -170h-105l-41 76l-74 -76h-113z" />
    <glyph glyph-name="edieresis" unicode="&#xeb;" horiz-adv-x="574" 
d="M512 219h-338l-2 -11q-5 -29 0 -47.5t19.5 -29.5t39 -15t57.5 -4q32 0 77.5 6t86.5 20l-23 -118q-17 -8 -39 -13.5t-46 -9.5t-49 -6t-47 -2q-142 0 -201 66.5t-33 199.5l14 70q13 69 40.5 115.5t65 74.5t83.5 40t97 12q56 0 101.5 -15t75 -48.5t39.5 -87t-5 -130.5z
M371 323l4 21q9 46 -7.5 72t-63.5 26q-44 0 -70.5 -26t-35.5 -74l-4 -19h177zM209 738h112l-24 -126h-112zM399 738h112l-24 -126h-112z" />
    <glyph glyph-name="igrave" unicode="&#xec;" horiz-adv-x="296" 
d="M159 0h-173l107 553h173zM253 601h-141l-96 147h167z" />
    <glyph glyph-name="iacute" unicode="&#xed;" horiz-adv-x="275" 
d="M157 0h-173l107 553h173zM224 748h178l-142 -147h-152z" />
    <glyph glyph-name="icircumflex" unicode="&#xee;" horiz-adv-x="275" 
d="M157 0h-173l107 553h173zM156 767h117l74 -170h-105l-41 76l-74 -76h-113z" />
    <glyph glyph-name="idieresis" unicode="&#xef;" horiz-adv-x="275" 
d="M157 0h-173l107 553h173zM63 738h112l-24 -126h-112zM253 738h112l-24 -126h-112z" />
    <glyph glyph-name="eth" unicode="&#xf0;" horiz-adv-x="598" 
d="M226 -13q-130 0 -183.5 71t-28.5 197l10 50q24 120 96.5 173.5t188.5 53.5q17 0 37 -2t32 -7q-20 37 -56 70l-130 -52l-13 71l77 31q-14 9 -29 17.5t-30 16.5l65 97q72 -38 126 -78l121 49l16 -71l-76 -31q69 -70 91 -156t4 -201l-14 -73q-12 -62 -36 -105t-62 -70
t-89 -39t-117 -12zM305 400q-22 0 -39.5 -5t-31.5 -18t-24 -35.5t-17 -56.5l-7 -36q-13 -69 3.5 -99t60.5 -30t71.5 25.5t40.5 94.5l7 36q14 69 -3 96.5t-61 27.5z" />
    <glyph glyph-name="ntilde" unicode="&#xf1;" horiz-adv-x="601" 
d="M475 0h-173l68 357q7 35 2 51t-37 16q-23 0 -51.5 -8t-51.5 -24l-76 -392h-172l107 553h128l3 -47q47 31 100.5 46t94.5 15q47 0 76 -16t43 -43t16 -61.5t-5 -71.5zM410 599q-25 0 -39.5 7t-24 16t-17.5 16t-20 7q-16 0 -25.5 -13t-16.5 -33h-96q7 25 18.5 51.5t28 48.5
t38.5 36t51 14q26 0 41.5 -7t26 -16t18.5 -16t19 -7q18 0 26 14t13 34h96q-7 -24 -17 -50.5t-26 -49t-39 -37.5t-55 -15z" />
    <glyph glyph-name="ograve" unicode="&#xf2;" horiz-adv-x="600" 
d="M226 -13q-130 0 -183.5 71t-28.5 197l16 80q24 120 99 176t202 56q67 0 113.5 -19.5t73 -55.5t34 -86t-4.5 -110l-16 -80q-12 -63 -37 -106.5t-62.5 -70.5t-88.5 -39.5t-117 -12.5zM311 432q-44 0 -71 -24t-41 -93l-13 -66q-13 -69 3.5 -98t60.5 -29t71.5 24.5t40.5 93.5
l13 66q14 69 -3 97.5t-61 28.5zM421 601h-141l-96 147h167z" />
    <glyph glyph-name="oacute" unicode="&#xf3;" horiz-adv-x="600" 
d="M226 -13q-130 0 -183.5 71t-28.5 197l16 80q24 120 99 176t202 56q67 0 113.5 -19.5t73 -55.5t34 -86t-4.5 -110l-16 -80q-12 -63 -37 -106.5t-62.5 -70.5t-88.5 -39.5t-117 -12.5zM311 432q-44 0 -71 -24t-41 -93l-13 -66q-13 -69 3.5 -98t60.5 -29t71.5 24.5t40.5 93.5
l13 66q14 69 -3 97.5t-61 28.5zM375 748h178l-142 -147h-152z" />
    <glyph glyph-name="ocircumflex" unicode="&#xf4;" horiz-adv-x="600" 
d="M226 -13q-130 0 -183.5 71t-28.5 197l16 80q24 120 99 176t202 56q67 0 113.5 -19.5t73 -55.5t34 -86t-4.5 -110l-16 -80q-12 -63 -37 -106.5t-62.5 -70.5t-88.5 -39.5t-117 -12.5zM311 432q-44 0 -71 -24t-41 -93l-13 -66q-13 -69 3.5 -98t60.5 -29t71.5 24.5t40.5 93.5
l13 66q14 69 -3 97.5t-61 28.5zM311 767h117l74 -170h-105l-41 76l-74 -76h-113z" />
    <glyph glyph-name="otilde" unicode="&#xf5;" horiz-adv-x="600" 
d="M226 -13q-130 0 -183.5 71t-28.5 197l16 80q24 120 99 176t202 56q67 0 113.5 -19.5t73 -55.5t34 -86t-4.5 -110l-16 -80q-12 -63 -37 -106.5t-62.5 -70.5t-88.5 -39.5t-117 -12.5zM311 432q-44 0 -71 -24t-41 -93l-13 -66q-13 -69 3.5 -98t60.5 -29t71.5 24.5t40.5 93.5
l13 66q14 69 -3 97.5t-61 28.5zM402 599q-25 0 -39.5 7t-24 16t-17.5 16t-20 7q-16 0 -25.5 -13t-16.5 -33h-96q7 25 18.5 51.5t28 48.5t38.5 36t51 14q26 0 41.5 -7t26 -16t18.5 -16t19 -7q18 0 26 14t13 34h96q-7 -24 -17 -50.5t-26 -49t-39 -37.5t-55 -15z" />
    <glyph glyph-name="odieresis" unicode="&#xf6;" horiz-adv-x="600" 
d="M226 -13q-130 0 -183.5 71t-28.5 197l16 80q24 120 99 176t202 56q67 0 113.5 -19.5t73 -55.5t34 -86t-4.5 -110l-16 -80q-12 -63 -37 -106.5t-62.5 -70.5t-88.5 -39.5t-117 -12.5zM311 432q-44 0 -71 -24t-41 -93l-13 -66q-13 -69 3.5 -98t60.5 -29t71.5 24.5t40.5 93.5
l13 66q14 69 -3 97.5t-61 28.5zM216 738h112l-24 -126h-112zM406 738h112l-24 -126h-112z" />
    <glyph glyph-name="divide" unicode="&#xf7;" horiz-adv-x="570" 
d="M45 414h500l-25 -132h-500zM258 627h161l-32 -157h-161zM180 226h161l-32 -157h-161z" />
    <glyph glyph-name="oslash" unicode="&#xf8;" horiz-adv-x="597" 
d="M227 -13q-69 0 -118 21l-44 -51h-117l91 104q-53 70 -29 194l16 80q24 120 101.5 176t204.5 56q75 0 127 -26l37 43h116l-87 -99q51 -72 28 -189l-16 -80q-25 -125 -102 -177t-208 -52zM312 432q-44 0 -73.5 -24t-43.5 -93l-13 -66l-5 -30l178 203q-17 10 -43 10z
M251 122q44 0 74 24.5t43 93.5l13 66l3 17l-170 -195q16 -6 37 -6z" />
    <glyph glyph-name="ugrave" unicode="&#xf9;" horiz-adv-x="602" 
d="M84 553h172l-70 -357q-7 -35 -1.5 -52t35.5 -17q23 0 51 9t53 24l76 393h172l-107 -553h-128l-4 47q-48 -32 -95.5 -45.5t-92.5 -13.5q-50 0 -80 16t-44.5 43t-16 62t6.5 72zM420 601h-141l-96 147h167z" />
    <glyph glyph-name="uacute" unicode="&#xfa;" horiz-adv-x="602" 
d="M84 553h172l-70 -357q-7 -35 -1.5 -52t35.5 -17q23 0 51 9t53 24l76 393h172l-107 -553h-128l-4 47q-48 -32 -95.5 -45.5t-92.5 -13.5q-50 0 -80 16t-44.5 43t-16 62t6.5 72zM367 748h178l-142 -147h-152z" />
    <glyph glyph-name="ucircumflex" unicode="&#xfb;" horiz-adv-x="602" 
d="M84 553h172l-70 -357q-7 -35 -1.5 -52t35.5 -17q23 0 51 9t53 24l76 393h172l-107 -553h-128l-4 47q-48 -32 -95.5 -45.5t-92.5 -13.5q-50 0 -80 16t-44.5 43t-16 62t6.5 72zM306 767h117l74 -170h-105l-41 76l-74 -76h-113z" />
    <glyph glyph-name="udieresis" unicode="&#xfc;" horiz-adv-x="602" 
d="M84 553h172l-70 -357q-7 -35 -1.5 -52t35.5 -17q23 0 51 9t53 24l76 393h172l-107 -553h-128l-4 47q-48 -32 -95.5 -45.5t-92.5 -13.5q-50 0 -80 16t-44.5 43t-16 62t6.5 72zM213 738h112l-24 -126h-112zM403 738h112l-24 -126h-112z" />
    <glyph glyph-name="yacute" unicode="&#xfd;" horiz-adv-x="588" 
d="M371 738h178l-142 -147h-152zM615 543l-415 -766h-179l115 213l-92 553h170l35 -289q3 -26 4 -53t0 -68q16 41 28 68t24 52l138 290h172z" />
    <glyph glyph-name="thorn" unicode="&#xfe;" horiz-adv-x="616" 
d="M129 744l178 30l-50 -252q36 21 78.5 33t85.5 12q50 0 82.5 -17.5t49.5 -46t20.5 -65.5t-3.5 -77l-30 -159q-11 -57 -31.5 -97.5t-52 -66t-75.5 -37t-102 -11.5q-23 0 -57 4t-65 15l-43 -225h-173zM183 137q23 -7 42 -9t40 -2q45 0 70.5 22t36.5 74l23 123
q8 45 -4.5 64.5t-49.5 19.5q-26 0 -56 -10t-52 -26z" />
    <glyph glyph-name="ydieresis" unicode="&#xff;" horiz-adv-x="588" 
d="M213 738h112l-24 -126h-112zM403 738h112l-24 -126h-112zM615 553l-415 -766h-179l115 213l-92 553h170l35 -289q3 -26 4 -53t0 -68q16 41 28 68t24 52l138 290h172z" />
    <glyph glyph-name="Amacron" unicode="&#x100;" horiz-adv-x="726" 
d="M538 750l111 -750h-187l-20 162h-236l-82 -162h-187l394 750h207zM274 310h155l-15 162q-2 17 -3 31.5t-2 29.5t-1 31.5t1 36.5q-6 -20 -12.5 -36t-13 -31t-14 -29.5t-15.5 -32.5zM326 935h296l-21 -106h-296z" />
    <glyph glyph-name="amacron" unicode="&#x101;" horiz-adv-x="568" 
d="M446 0h-128l-6 50q-35 -25 -80.5 -42.5t-101.5 -17.5q-37 0 -66 10t-47 30.5t-24 51.5t2 73l7 38q9 47 28 77t51 46.5t77.5 22.5t107.5 6h80l6 30q4 21 3.5 35t-8 22t-23 11t-40.5 3q-14 0 -35 -2t-45 -6.5t-49.5 -10.5t-49.5 -15l24 122q44 16 98.5 24.5t96.5 8.5
q66 0 107.5 -15.5t63 -43t25.5 -66.5t-5 -87zM326 240h-64q-18 0 -34 -0.5t-28 -5.5t-21 -15.5t-13 -31.5l-4 -23q-12 -54 41 -54q23 0 52.5 8t51.5 25zM211 735h296l-21 -106h-296z" />
    <glyph glyph-name="Abreve" unicode="&#x102;" horiz-adv-x="726" 
d="M538 750l111 -750h-187l-20 162h-236l-82 -162h-187l394 750h207zM274 310h155l-15 162q-2 17 -3 31.5t-2 29.5t-1 31.5t1 36.5q-6 -20 -12.5 -36t-13 -31t-14 -29.5t-15.5 -32.5zM445 803q-34 0 -59 12t-40 32t-20 47.5t0 59.5h86q-7 -59 45 -59q51 0 67 59h94
q-7 -33 -20.5 -60.5t-34.5 -47.5t-50.5 -31.5t-67.5 -11.5z" />
    <glyph glyph-name="abreve" unicode="&#x103;" horiz-adv-x="568" 
d="M446 0h-128l-6 50q-35 -25 -80.5 -42.5t-101.5 -17.5q-37 0 -66 10t-47 30.5t-24 51.5t2 73l7 38q9 47 28 77t51 46.5t77.5 22.5t107.5 6h80l6 30q4 21 3.5 35t-8 22t-23 11t-40.5 3q-14 0 -35 -2t-45 -6.5t-49.5 -10.5t-49.5 -15l24 122q44 16 98.5 24.5t96.5 8.5
q66 0 107.5 -15.5t63 -43t25.5 -66.5t-5 -87zM326 240h-64q-18 0 -34 -0.5t-28 -5.5t-21 -15.5t-13 -31.5l-4 -23q-12 -54 41 -54q23 0 52.5 8t51.5 25zM331 603q-34 0 -59 12t-40 32t-20 47.5t0 59.5h86q-7 -59 45 -59q51 0 67 59h94q-7 -33 -20.5 -60.5t-34.5 -47.5
t-50.5 -31.5t-67.5 -11.5z" />
    <glyph glyph-name="Aogonek" unicode="&#x104;" horiz-adv-x="726" 
d="M544 -232q-38 0 -64 8.5t-41 22.5t-20 33t-1 40l2 11q3 19 15 37.5t29 34t38 27t42 18.5h-82l-20 162h-236l-82 -162h-187l394 750h207l111 -750q-48 -26 -74.5 -52t-31.5 -49l-2 -10q-4 -20 9.5 -24.5t32.5 -4.5q15 0 32.5 2t28.5 5l-17 -88q-14 -4 -35 -7.5t-48 -3.5z
M274 310h155l-15 162q-2 17 -3 31.5t-2 29.5t-1 31.5t1 36.5q-6 -20 -12.5 -36t-13 -31t-14 -29.5t-15.5 -32.5z" />
    <glyph glyph-name="aogonek" unicode="&#x105;" horiz-adv-x="568" 
d="M340 -232q-38 0 -64 8.5t-41 22.5t-20 33t-1 40l2 11q3 19 15 37.5t29 34t38 27t42 18.5h-22l-6 50q-35 -25 -80.5 -42.5t-101.5 -17.5q-37 0 -66 10t-47 30.5t-24 51.5t2 73l7 38q9 47 28 77t51 46.5t77.5 22.5t107.5 6h80l6 30q4 21 3.5 35t-8 22t-23 11t-40.5 3
q-14 0 -35 -2t-45 -6.5t-49.5 -10.5t-49.5 -15l24 122q44 16 98.5 24.5t96.5 8.5q66 0 107.5 -15.5t63 -43t25.5 -66.5t-5 -87l-69 -355h-1q-48 -26 -74.5 -52t-31.5 -49l-2 -10q-4 -20 9.5 -24.5t32.5 -4.5q15 0 32.5 2t28.5 5l-17 -88q-14 -4 -35 -7.5t-48 -3.5zM326 240
h-64q-18 0 -34 -0.5t-28 -5.5t-21 -15.5t-13 -31.5l-4 -23q-12 -54 41 -54q23 0 52.5 8t51.5 25z" />
    <glyph glyph-name="Cacute" unicode="&#x106;" horiz-adv-x="622" 
d="M617 587q-35 8 -79 12.5t-91 4.5q-54 0 -90 -10.5t-59.5 -31t-37 -51t-21.5 -70.5l-24 -125q-9 -44 -7.5 -75.5t17 -52.5t47.5 -31t85 -10q40 0 90 4.5t101 18.5l-30 -150q-23 -9 -50.5 -15t-56 -9t-56.5 -4.5t-51 -1.5q-175 0 -237.5 84t-27.5 261l23 118
q18 93 50.5 152.5t81 94t113 47.5t146.5 13q28 0 55.5 -1.5t53 -5t47.5 -8t38 -10.5zM464 948h178l-142 -147h-152z" />
    <glyph glyph-name="cacute" unicode="&#x107;" horiz-adv-x="553" 
d="M482 420q-22 7 -55.5 12.5t-74.5 5.5q-37 0 -63.5 -7t-45.5 -22.5t-30.5 -39.5t-17.5 -58l-14 -67q-7 -36 -4.5 -60t15.5 -38t37 -20t61 -6q32 0 69 5t79 19l-25 -129q-18 -7 -41.5 -12t-48.5 -8.5t-48.5 -5t-40.5 -1.5q-142 0 -193 73t-25 205l14 72q13 67 39.5 111
t66 70.5t93 37t119.5 10.5q21 0 43 -1.5t43.5 -4.5t40 -7.5t31.5 -10.5zM355 748h178l-142 -147h-152z" />
    <glyph glyph-name="Ccircumflex" unicode="&#x108;" horiz-adv-x="622" 
d="M617 587q-35 8 -79 12.5t-91 4.5q-54 0 -90 -10.5t-59.5 -31t-37 -51t-21.5 -70.5l-24 -125q-9 -44 -7.5 -75.5t17 -52.5t47.5 -31t85 -10q40 0 90 4.5t101 18.5l-30 -150q-23 -9 -50.5 -15t-56 -9t-56.5 -4.5t-51 -1.5q-175 0 -237.5 84t-27.5 261l23 118
q18 93 50.5 152.5t81 94t113 47.5t146.5 13q28 0 55.5 -1.5t53 -5t47.5 -8t38 -10.5zM409 967h117l74 -170h-105l-41 76l-74 -76h-113z" />
    <glyph glyph-name="ccircumflex" unicode="&#x109;" horiz-adv-x="526" 
d="M482 420q-22 7 -55.5 12.5t-74.5 5.5q-37 0 -63.5 -7t-45.5 -22.5t-30.5 -39.5t-17.5 -58l-14 -67q-7 -36 -4.5 -60t15.5 -38t37 -20t61 -6q32 0 69 5t79 19l-25 -129q-18 -7 -41.5 -12t-48.5 -8.5t-48.5 -5t-40.5 -1.5q-142 0 -193 73t-25 205l14 72q13 67 39.5 111
t66 70.5t93 37t119.5 10.5q21 0 43 -1.5t43.5 -4.5t40 -7.5t31.5 -10.5zM308 767h117l74 -170h-105l-41 76l-74 -76h-113z" />
    <glyph glyph-name="Cdotaccent" unicode="&#x10a;" horiz-adv-x="622" 
d="M617 587q-35 8 -79 12.5t-91 4.5q-54 0 -90 -10.5t-59.5 -31t-37 -51t-21.5 -70.5l-24 -125q-9 -44 -7.5 -75.5t17 -52.5t47.5 -31t85 -10q40 0 90 4.5t101 18.5l-30 -150q-23 -9 -50.5 -15t-56 -9t-56.5 -4.5t-51 -1.5q-175 0 -237.5 84t-27.5 261l23 118
q18 93 50.5 152.5t81 94t113 47.5t146.5 13q28 0 55.5 -1.5t53 -5t47.5 -8t38 -10.5zM405 938h114l-24 -126h-114z" />
    <glyph glyph-name="cdotaccent" unicode="&#x10b;" horiz-adv-x="526" 
d="M482 420q-22 7 -55.5 12.5t-74.5 5.5q-37 0 -63.5 -7t-45.5 -22.5t-30.5 -39.5t-17.5 -58l-14 -67q-7 -36 -4.5 -60t15.5 -38t37 -20t61 -6q32 0 69 5t79 19l-25 -129q-18 -7 -41.5 -12t-48.5 -8.5t-48.5 -5t-40.5 -1.5q-142 0 -193 73t-25 205l14 72q13 67 39.5 111
t66 70.5t93 37t119.5 10.5q21 0 43 -1.5t43.5 -4.5t40 -7.5t31.5 -10.5zM308 738h114l-24 -126h-114z" />
    <glyph glyph-name="Ccaron" unicode="&#x10c;" horiz-adv-x="622" 
d="M617 587q-35 8 -79 12.5t-91 4.5q-54 0 -90 -10.5t-59.5 -31t-37 -51t-21.5 -70.5l-24 -125q-9 -44 -7.5 -75.5t17 -52.5t47.5 -31t85 -10q40 0 90 4.5t101 18.5l-30 -150q-23 -9 -50.5 -15t-56 -9t-56.5 -4.5t-51 -1.5q-175 0 -237.5 84t-27.5 261l23 118
q18 93 50.5 152.5t81 94t113 47.5t146.5 13q28 0 55.5 -1.5t53 -5t47.5 -8t38 -10.5zM310 960h104l44 -76l71 76h114l-141 -170h-117z" />
    <glyph glyph-name="ccaron" unicode="&#x10d;" horiz-adv-x="520" 
d="M482 420q-22 7 -55.5 12.5t-74.5 5.5q-37 0 -63.5 -7t-45.5 -22.5t-30.5 -39.5t-17.5 -58l-14 -67q-7 -36 -4.5 -60t15.5 -38t37 -20t61 -6q32 0 69 5t79 19l-25 -129q-18 -7 -41.5 -12t-48.5 -8.5t-48.5 -5t-40.5 -1.5q-142 0 -193 73t-25 205l14 72q13 67 39.5 111
t66 70.5t93 37t119.5 10.5q21 0 43 -1.5t43.5 -4.5t40 -7.5t31.5 -10.5zM198 760h104l44 -76l71 76h114l-141 -170h-117z" />
    <glyph glyph-name="Dcaron" unicode="&#x10e;" horiz-adv-x="708" 
d="M-10 0l145 750h282q79 0 137 -17t92.5 -53t44.5 -92.5t-6 -135.5l-35 -188q-14 -74 -38.5 -124.5t-64 -81.5t-97 -44.5t-136.5 -13.5h-324zM283 599l-87 -448h109q46 0 76.5 9.5t49.5 28.5t29.5 47.5t18.5 66.5l29 148q7 35 7.5 62.5t-10.5 46.5t-36.5 29t-70.5 10h-115z
M309 960h104l44 -76l71 76h114l-141 -170h-117z" />
    <glyph glyph-name="dcaron" unicode="&#x10f;" horiz-adv-x="728" 
d="M818 761l-68 -186h-95l46 186h117zM165 -10q-48 0 -81 16.5t-51 44t-22.5 64.5t3.5 78l34 172q12 60 36 99t57.5 62t74 32t85.5 9q41 0 72 -6.5t54 -18.5l40 202l178 30l-150 -774h-137l-5 49q-36 -26 -80.5 -42.5t-107.5 -16.5zM400 406q-13 11 -34.5 17t-44.5 6
q-21 0 -38 -4t-30.5 -14.5t-23 -29t-15.5 -47.5l-23 -118q-8 -42 2 -65t48 -23q29 0 57.5 9t54.5 26z" />
    <glyph glyph-name="Dcroat" unicode="&#x110;" horiz-adv-x="724" 
d="M12 440h79l60 310h282q79 0 137 -17t92.5 -53t44.5 -92.5t-6 -135.5l-35 -188q-14 -74 -38.5 -124.5t-64 -81.5t-97 -44.5t-136.5 -13.5h-324l63 329h-79zM299 599l-31 -159h159l-22 -111h-159l-34 -178h109q46 0 76.5 9.5t49.5 28.5t29.5 47.5t18.5 66.5l29 148
q7 35 7.5 62.5t-10.5 46.5t-36.5 29t-70.5 10h-115z" />
    <glyph glyph-name="dcroat" unicode="&#x111;" horiz-adv-x="615" 
d="M165 -10q-48 0 -81 16.5t-51 44t-22.5 64.5t3.5 78l30 154q12 60 36 99t57.5 62t74 32t85.5 9q41 0 72 -6.5t54 -18.5l14 71h-127l18 93h127l12 56l178 30l-17 -86h77l-18 -93h-77l-115 -595h-137l-5 49q-36 -26 -80.5 -42.5t-107.5 -16.5zM396 388q-13 11 -34.5 17
t-44.5 6q-21 0 -38 -4t-30.5 -14.5t-23 -29t-15.5 -47.5l-19 -100q-8 -42 2 -65t48 -23q29 0 57.5 9t54.5 26z" />
    <glyph glyph-name="Emacron" unicode="&#x112;" 
d="M635 750l-27 -143h-322l-30 -154h290l-28 -142h-290l-33 -168h336l-27 -143h-514l145 750h500zM291 935h296l-21 -106h-296z" />
    <glyph glyph-name="emacron" unicode="&#x113;" horiz-adv-x="574" 
d="M512 219h-338l-2 -11q-5 -29 0 -47.5t19.5 -29.5t39 -15t57.5 -4q32 0 77.5 6t86.5 20l-23 -118q-17 -8 -39 -13.5t-46 -9.5t-49 -6t-47 -2q-142 0 -201 66.5t-33 199.5l14 70q13 69 40.5 115.5t65 74.5t83.5 40t97 12q56 0 101.5 -15t75 -48.5t39.5 -87t-5 -130.5z
M371 323l4 21q9 46 -7.5 72t-63.5 26q-44 0 -70.5 -26t-35.5 -74l-4 -19h177zM203 735h296l-21 -106h-296z" />
    <glyph glyph-name="Ebreve" unicode="&#x114;" 
d="M635 750l-27 -143h-322l-30 -154h290l-28 -142h-290l-33 -168h336l-27 -143h-514l145 750h500zM405 803q-34 0 -59 12t-40 32t-20 47.5t0 59.5h86q-7 -59 45 -59q51 0 67 59h94q-7 -33 -20.5 -60.5t-34.5 -47.5t-50.5 -31.5t-67.5 -11.5z" />
    <glyph glyph-name="ebreve" unicode="&#x115;" horiz-adv-x="574" 
d="M512 219h-338l-2 -11q-5 -29 0 -47.5t19.5 -29.5t39 -15t57.5 -4q32 0 77.5 6t86.5 20l-23 -118q-17 -8 -39 -13.5t-46 -9.5t-49 -6t-47 -2q-142 0 -201 66.5t-33 199.5l14 70q13 69 40.5 115.5t65 74.5t83.5 40t97 12q56 0 101.5 -15t75 -48.5t39.5 -87t-5 -130.5z
M371 323l4 21q9 46 -7.5 72t-63.5 26q-44 0 -70.5 -26t-35.5 -74l-4 -19h177zM328 603q-34 0 -59 12t-40 32t-20 47.5t0 59.5h86q-7 -59 45 -59q51 0 67 59h94q-7 -33 -20.5 -60.5t-34.5 -47.5t-50.5 -31.5t-67.5 -11.5z" />
    <glyph glyph-name="Edotaccent" unicode="&#x116;" 
d="M635 750l-27 -143h-322l-30 -154h290l-28 -142h-290l-33 -168h336l-27 -143h-514l145 750h500zM382 938h114l-24 -126h-114z" />
    <glyph glyph-name="edotaccent" unicode="&#x117;" horiz-adv-x="574" 
d="M512 219h-338l-2 -11q-5 -29 0 -47.5t19.5 -29.5t39 -15t57.5 -4q32 0 77.5 6t86.5 20l-23 -118q-17 -8 -39 -13.5t-46 -9.5t-49 -6t-47 -2q-142 0 -201 66.5t-33 199.5l14 70q13 69 40.5 115.5t65 74.5t83.5 40t97 12q56 0 101.5 -15t75 -48.5t39.5 -87t-5 -130.5z
M371 323l4 21q9 46 -7.5 72t-63.5 26q-44 0 -70.5 -26t-35.5 -74l-4 -19h177zM300 738h114l-24 -126h-114z" />
    <glyph glyph-name="Eogonek" unicode="&#x118;" 
d="M354 -232q-38 0 -64 8.5t-41 22.5t-20 33t-1 40l2 11q3 19 15 37.5t29 34t38 27t42 18.5h-364l145 750h500l-27 -143h-322l-30 -154h290l-28 -142h-290l-33 -168h336l-27 -143h-45q-48 -26 -74.5 -52t-31.5 -49l-2 -10q-4 -20 9.5 -24.5t32.5 -4.5q15 0 32.5 2t28.5 5
l-17 -88q-14 -4 -35 -7.5t-48 -3.5z" />
    <glyph glyph-name="eogonek" unicode="&#x119;" horiz-adv-x="574" 
d="M253 -232q-38 0 -64 8.5t-41 22.5t-20 33t-1 40l2 11q5 33 33.5 61.5t63.5 45.5q-262 11 -212 265l14 70q13 69 40.5 115.5t65 74.5t83.5 40t97 12q56 0 101.5 -15t75 -48.5t39.5 -87t-5 -130.5l-13 -67h-338l-2 -11q-5 -29 0 -47.5t19.5 -29.5t39 -15t57.5 -4
q32 0 77.5 6t86.5 20l-23 -118q-15 -7 -34 -12t-39 -9q-48 -25 -73.5 -51t-30.5 -49l-2 -10q-4 -20 9.5 -24.5t32.5 -4.5q15 0 32.5 2t28.5 5l-17 -88q-14 -4 -35 -7.5t-48 -3.5zM371 323l4 21q9 46 -7.5 72t-63.5 26q-44 0 -70.5 -26t-35.5 -74l-4 -19h177z" />
    <glyph glyph-name="Ecaron" unicode="&#x11a;" 
d="M635 750l-27 -143h-322l-30 -154h290l-28 -142h-290l-33 -168h336l-27 -143h-514l145 750h500zM274 960h104l44 -76l71 76h114l-141 -170h-117z" />
    <glyph glyph-name="ecaron" unicode="&#x11b;" horiz-adv-x="574" 
d="M512 219h-338l-2 -11q-5 -29 0 -47.5t19.5 -29.5t39 -15t57.5 -4q32 0 77.5 6t86.5 20l-23 -118q-17 -8 -39 -13.5t-46 -9.5t-49 -6t-47 -2q-142 0 -201 66.5t-33 199.5l14 70q13 69 40.5 115.5t65 74.5t83.5 40t97 12q56 0 101.5 -15t75 -48.5t39.5 -87t-5 -130.5z
M371 323l4 21q9 46 -7.5 72t-63.5 26q-44 0 -70.5 -26t-35.5 -74l-4 -19h177zM202 760h104l44 -76l71 76h114l-141 -170h-117z" />
    <glyph glyph-name="Gcircumflex" unicode="&#x11c;" horiz-adv-x="686" 
d="M631 590q-35 8 -82.5 13t-94.5 5q-54 0 -90.5 -9t-60.5 -28.5t-38 -50.5t-23 -74l-27 -136q-8 -44 -7.5 -75.5t15.5 -52.5t47 -31t85 -10q22 0 40 1.5t35 6.5l28 147h-114l27 134h280l-79 -405q-57 -20 -123.5 -27.5t-131.5 -7.5q-91 0 -152.5 20t-95 61.5t-41 105.5
t10.5 153l23 118q18 94 51.5 154.5t82.5 95.5t114.5 48.5t148.5 13.5q27 0 55 -2t55 -5t50.5 -8t40.5 -11zM412 967h117l74 -170h-105l-41 76l-74 -76h-113z" />
    <glyph glyph-name="gcircumflex" unicode="&#x11d;" horiz-adv-x="617" 
d="M177 -6q-55 0 -90.5 16.5t-54 45t-22.5 65.5t4 78l32 164q12 60 35 99.5t55.5 62.5t72 32.5t84.5 9.5q38 0 80.5 -9t74.5 -36l19 31h133l-108 -552q-11 -57 -30.5 -99t-54 -70t-88.5 -41.5t-133 -13.5q-42 0 -83.5 5t-67.5 12l24 124q29 -8 63 -12t69 -4q61 0 88.5 18
t36.5 65l9 45q-65 -36 -148 -36zM397 402q-13 14 -35 21t-45 7q-42 0 -67.5 -19.5t-36.5 -71.5l-23 -115q-9 -45 3.5 -68.5t54.5 -23.5q56 0 101 21zM333 767h117l74 -170h-105l-41 76l-74 -76h-113z" />
    <glyph glyph-name="Gbreve" unicode="&#x11e;" horiz-adv-x="686" 
d="M631 590q-35 8 -82.5 13t-94.5 5q-54 0 -90.5 -9t-60.5 -28.5t-38 -50.5t-23 -74l-27 -136q-8 -44 -7.5 -75.5t15.5 -52.5t47 -31t85 -10q22 0 40 1.5t35 6.5l28 147h-114l27 134h280l-79 -405q-57 -20 -123.5 -27.5t-131.5 -7.5q-91 0 -152.5 20t-95 61.5t-41 105.5
t10.5 153l23 118q18 94 51.5 154.5t82.5 95.5t114.5 48.5t148.5 13.5q27 0 55 -2t55 -5t50.5 -8t40.5 -11zM442 803q-34 0 -59 12t-40 32t-20 47.5t0 59.5h86q-7 -59 45 -59q51 0 67 59h94q-7 -33 -20.5 -60.5t-34.5 -47.5t-50.5 -31.5t-67.5 -11.5z" />
    <glyph glyph-name="gbreve" unicode="&#x11f;" horiz-adv-x="617" 
d="M177 -6q-55 0 -90.5 16.5t-54 45t-22.5 65.5t4 78l32 164q12 60 35 99.5t55.5 62.5t72 32.5t84.5 9.5q38 0 80.5 -9t74.5 -36l19 31h133l-108 -552q-11 -57 -30.5 -99t-54 -70t-88.5 -41.5t-133 -13.5q-42 0 -83.5 5t-67.5 12l24 124q29 -8 63 -12t69 -4q61 0 88.5 18
t36.5 65l9 45q-65 -36 -148 -36zM397 402q-13 14 -35 21t-45 7q-42 0 -67.5 -19.5t-36.5 -71.5l-23 -115q-9 -45 3.5 -68.5t54.5 -23.5q56 0 101 21zM355 603q-34 0 -59 12t-40 32t-20 47.5t0 59.5h86q-7 -59 45 -59q51 0 67 59h94q-7 -33 -20.5 -60.5t-34.5 -47.5
t-50.5 -31.5t-67.5 -11.5z" />
    <glyph glyph-name="Gdotaccent" unicode="&#x120;" horiz-adv-x="686" 
d="M631 590q-35 8 -82.5 13t-94.5 5q-54 0 -90.5 -9t-60.5 -28.5t-38 -50.5t-23 -74l-27 -136q-8 -44 -7.5 -75.5t15.5 -52.5t47 -31t85 -10q22 0 40 1.5t35 6.5l28 147h-114l27 134h280l-79 -405q-57 -20 -123.5 -27.5t-131.5 -7.5q-91 0 -152.5 20t-95 61.5t-41 105.5
t10.5 153l23 118q18 94 51.5 154.5t82.5 95.5t114.5 48.5t148.5 13.5q27 0 55 -2t55 -5t50.5 -8t40.5 -11zM406 938h114l-24 -126h-114z" />
    <glyph glyph-name="gdotaccent" unicode="&#x121;" horiz-adv-x="617" 
d="M177 -6q-55 0 -90.5 16.5t-54 45t-22.5 65.5t4 78l32 164q12 60 35 99.5t55.5 62.5t72 32.5t84.5 9.5q38 0 80.5 -9t74.5 -36l19 31h133l-108 -552q-11 -57 -30.5 -99t-54 -70t-88.5 -41.5t-133 -13.5q-42 0 -83.5 5t-67.5 12l24 124q29 -8 63 -12t69 -4q61 0 88.5 18
t36.5 65l9 45q-65 -36 -148 -36zM397 402q-13 14 -35 21t-45 7q-42 0 -67.5 -19.5t-36.5 -71.5l-23 -115q-9 -45 3.5 -68.5t54.5 -23.5q56 0 101 21zM327 738h114l-24 -126h-114z" />
    <glyph glyph-name="uni0122" unicode="&#x122;" horiz-adv-x="686" 
d="M631 590q-35 8 -82.5 13t-94.5 5q-54 0 -90.5 -9t-60.5 -28.5t-38 -50.5t-23 -74l-27 -136q-8 -44 -7.5 -75.5t15.5 -52.5t47 -31t85 -10q22 0 40 1.5t35 6.5l28 147h-114l27 134h280l-79 -405q-57 -20 -123.5 -27.5t-131.5 -7.5q-91 0 -152.5 20t-95 61.5t-41 105.5
t10.5 153l23 118q18 94 51.5 154.5t82.5 95.5t114.5 48.5t148.5 13.5q27 0 55 -2t55 -5t50.5 -8t40.5 -11zM229 -46h142l-103 -194h-117z" />
    <glyph glyph-name="uni0123" unicode="&#x123;" horiz-adv-x="617" 
d="M177 -6q-55 0 -90.5 16.5t-54 45t-22.5 65.5t4 78l32 164q12 60 35 99.5t55.5 62.5t72 32.5t84.5 9.5q38 0 80.5 -9t74.5 -36l19 31h133l-108 -552q-11 -57 -30.5 -99t-54 -70t-88.5 -41.5t-133 -13.5q-42 0 -83.5 5t-67.5 12l24 124q29 -8 63 -12t69 -4q61 0 88.5 18
t36.5 65l9 45q-65 -36 -148 -36zM397 402q-13 14 -35 21t-45 7q-42 0 -67.5 -19.5t-36.5 -71.5l-23 -115q-9 -45 3.5 -68.5t54.5 -23.5q56 0 101 21zM405 596h-142l103 194h117z" />
    <glyph glyph-name="Hcircumflex" unicode="&#x124;" horiz-adv-x="726" 
d="M736 750l-145 -750h-177l58 303h-247l-58 -303h-177l145 750h177l-56 -285h247l56 285h177zM414 967h117l74 -170h-105l-41 76l-74 -76h-113z" />
    <glyph glyph-name="hcircumflex" unicode="&#x125;" horiz-adv-x="615" 
d="M475 0h-173l68 357q7 35 2 51t-37 16q-23 0 -50 -8.5t-52 -22.5l-76 -393h-173l145 744l178 30l-49 -250q38 20 80 31.5t79 11.5q47 0 76 -16t43 -43t16 -61.5t-5 -71.5zM376 967h117l74 -170h-105l-41 76l-74 -76h-113z" />
    <glyph glyph-name="Hbar" unicode="&#x126;" horiz-adv-x="785" 
d="M54 615h65l26 135h177l-27 -135h247l27 135h177l-26 -135h65l-21 -111h-66l-97 -504h-177l49 258h-247l-49 -258h-177l97 504h-64zM504 416l17 88h-247l-17 -88h247z" />
    <glyph glyph-name="hbar" unicode="&#x127;" horiz-adv-x="607" 
d="M485 0h-173l64 334q7 35 2 51t-37 16q-23 0 -50 -8.5t-52 -22.5l-72 -370h-173l115 589h-60l19 101h60l11 54l178 30l-17 -84h108l-19 -101h-108l-17 -88q38 20 80 31.5t79 11.5q47 0 76 -16t43 -43t16 -61.5t-5 -71.5z" />
    <glyph glyph-name="Itilde" unicode="&#x128;" horiz-adv-x="303" 
d="M168 0h-178l145 750h178zM295 799q-25 0 -39.5 7t-24 16t-17.5 16t-20 7q-16 0 -25.5 -13t-16.5 -33h-96q7 25 18.5 51.5t28 48.5t38.5 36t51 14q26 0 41.5 -7t26 -16t18.5 -16t19 -7q18 0 26 14t13 34h96q-7 -24 -17 -50.5t-26 -49t-39 -37.5t-55 -15z" />
    <glyph glyph-name="itilde" unicode="&#x129;" horiz-adv-x="275" 
d="M157 0h-173l107 553h173zM245 599q-25 0 -39.5 7t-24 16t-17.5 16t-20 7q-16 0 -25.5 -13t-16.5 -33h-96q7 25 18.5 51.5t28 48.5t38.5 36t51 14q26 0 41.5 -7t26 -16t18.5 -16t19 -7q18 0 26 14t13 34h96q-7 -24 -17 -50.5t-26 -49t-39 -37.5t-55 -15z" />
    <glyph glyph-name="Imacron" unicode="&#x12a;" horiz-adv-x="303" 
d="M168 0h-178l145 750h178zM111 935h296l-22 -110h-296z" />
    <glyph glyph-name="imacron" unicode="&#x12b;" horiz-adv-x="275" 
d="M157 0h-173l107 553h173zM61 735h296l-21 -106h-296z" />
    <glyph glyph-name="Ibreve" unicode="&#x12c;" horiz-adv-x="303" 
d="M168 0h-178l145 750h178zM234 803q-34 0 -59 12t-40 32t-20 47.5t0 59.5h86q-7 -59 45 -59q51 0 67 59h94q-7 -33 -20.5 -60.5t-34.5 -47.5t-50.5 -31.5t-67.5 -11.5z" />
    <glyph glyph-name="ibreve" unicode="&#x12d;" horiz-adv-x="275" 
d="M157 0h-173l107 553h173zM181 603q-34 0 -59 12t-40 32t-20 47.5t0 59.5h86q-7 -59 45 -59q51 0 67 59h94q-7 -33 -20.5 -60.5t-34.5 -47.5t-50.5 -31.5t-67.5 -11.5z" />
    <glyph glyph-name="Iogonek" unicode="&#x12e;" horiz-adv-x="303" 
d="M63 -232q-38 0 -64 8.5t-41 22.5t-20 33t-1 40l2 11q3 19 15 37.5t29 34t38 27t42 18.5h-73l145 750h178l-145 -750q-48 -26 -74.5 -52t-31.5 -49l-2 -10q-4 -20 9.5 -24.5t32.5 -4.5q15 0 32.5 2t28.5 5l-17 -88q-14 -4 -35 -7.5t-48 -3.5z" />
    <glyph glyph-name="iogonek" unicode="&#x12f;" horiz-adv-x="294" 
d="M52 -232q-38 0 -64 8.5t-41 22.5t-20 33t-1 40l2 11q3 19 15 37.5t29 34t38 27t42 18.5h-68l107 553h173l-107 -553q-48 -26 -74.5 -52t-31.5 -49l-2 -10q-4 -20 9.5 -24.5t32.5 -4.5q15 0 32.5 2t28.5 5l-17 -88q-14 -4 -35 -7.5t-48 -3.5zM278 625h-173l32 163h173z
" />
    <glyph glyph-name="Idotaccent" unicode="&#x130;" horiz-adv-x="303" 
d="M168 0h-178l145 750h178zM202 938h114l-24 -126h-114z" />
    <glyph glyph-name="dotlessi" unicode="&#x131;" horiz-adv-x="294" 
d="M157 0h-173l107 553h173z" />
    <glyph glyph-name="IJ" unicode="&#x132;" horiz-adv-x="734" 
d="M168 0h-178l145 750h178zM751 750l-105 -542q-11 -57 -27 -98t-43 -68t-69 -39.5t-105 -12.5q-12 0 -33 1.5t-44.5 4.5t-45.5 7.5t-36 10.5l31 153q33 -13 61 -17t54 -4q18 0 31.5 4t23.5 13.5t16.5 25.5t11.5 41l102 520h177z" />
    <glyph glyph-name="ij" unicode="&#x133;" horiz-adv-x="598" 
d="M157 0h-173l107 553h173zM278 625h-173l32 163h173zM568 553l-115 -591q-11 -59 -30.5 -95t-47.5 -56t-64 -27t-81 -7q-40 0 -72 4t-60 11l28 138q23 -5 43.5 -6.5t38.5 -1.5t31 2.5t22 10.5t15.5 22.5t11.5 39.5l108 556h172zM582 625h-172l32 163h172z" />
    <glyph glyph-name="Jcircumflex" unicode="&#x134;" horiz-adv-x="436" 
d="M453 750l-105 -542q-11 -57 -27 -98t-43 -68t-69 -39.5t-105 -12.5q-12 0 -33 1.5t-44.5 4.5t-45.5 7.5t-36 10.5l31 153q33 -13 61 -17t54 -4q18 0 31.5 4t23.5 13.5t16.5 25.5t11.5 41l102 520h177zM343 967h117l74 -170h-105l-41 76l-74 -76h-113z" />
    <glyph glyph-name="jcircumflex" unicode="&#x135;" horiz-adv-x="320" 
d="M285 553l-114 -585q-11 -59 -30.5 -96t-47.5 -58t-64.5 -29t-81.5 -8q-40 0 -72 4t-60 11l28 138q23 -5 43.5 -6.5t38.5 -1.5t31 2.5t22 10.5t15.5 22.5t11.5 39.5l108 556h172zM179 767h117l74 -170h-105l-41 76l-74 -76h-113z" />
    <glyph glyph-name="uni0136" unicode="&#x136;" horiz-adv-x="722" 
d="M462 378l181 -378h-204l-133 308h-79l-59 -308h-178l145 750h178l-58 -299h64l227 299h216zM241 -46h142l-103 -194h-117z" />
    <glyph glyph-name="uni0137" unicode="&#x137;" horiz-adv-x="598" 
d="M307 774l-80 -409h45l150 188h214l-222 -259l112 -294h-195l-76 225h-55l-43 -225h-173l145 744zM171 -46h142l-103 -194h-117z" />
    <glyph glyph-name="kgreenlandic" unicode="&#x138;" horiz-adv-x="593" 
d="M264 553l-40 -202h45l158 202h204l-230 -272l123 -281h-199l-79 211h-49l-40 -211h-173l107 553h173z" />
    <glyph glyph-name="Lacute" unicode="&#x139;" horiz-adv-x="584" 
d="M313 750l-115 -594h316l-30 -156h-494l145 750h178zM270 948h178l-142 -147h-152z" />
    <glyph glyph-name="lacute" unicode="&#x13a;" horiz-adv-x="291" 
d="M-16 0l145 744l178 30l-150 -774h-173zM266 948h178l-142 -147h-152z" />
    <glyph glyph-name="uni013B" unicode="&#x13b;" horiz-adv-x="584" 
d="M313 750l-115 -594h316l-30 -156h-494l145 750h178zM183 -46h142l-103 -194h-117z" />
    <glyph glyph-name="uni013C" unicode="&#x13c;" horiz-adv-x="291" 
d="M-16 0l145 744l178 30l-150 -774h-173zM-6 -46h142l-103 -194h-117z" />
    <glyph glyph-name="Lcaron" unicode="&#x13d;" horiz-adv-x="584" 
d="M512 750l-74 -221h-110l51 221h133zM313 750l-115 -594h316l-30 -156h-494l145 750h178z" />
    <glyph glyph-name="lcaron" unicode="&#x13e;" horiz-adv-x="417" 
d="M497 761l-72 -212h-108l50 212h130zM-16 0l145 744l178 30l-150 -774h-173z" />
    <glyph glyph-name="Ldot" unicode="&#x13f;" horiz-adv-x="601" 
d="M313 750l-115 -594h316l-30 -156h-494l145 750h178zM417 490h114l-25 -126h-114z" />
    <glyph glyph-name="ldot" unicode="&#x140;" horiz-adv-x="405" 
d="M-16 0l145 744l178 30l-150 -774h-173zM309 459h114l-25 -126h-114z" />
    <glyph glyph-name="Lslash" unicode="&#x141;" horiz-adv-x="633" 
d="M5 359l113 49l66 342h178l-50 -258l176 77l-25 -128l-176 -77l-40 -208h316l-30 -156h-494l54 280l-113 -49z" />
    <glyph glyph-name="lslash" unicode="&#x142;" horiz-adv-x="331" 
d="M0 0l53 275l-103 -58l24 128l104 59l67 340l178 30l-51 -261l109 62l-24 -128l-110 -62l-74 -385h-173z" />
    <glyph glyph-name="Nacute" unicode="&#x143;" horiz-adv-x="723" 
d="M593 0h-178l-142 400q-11 29 -16 55.5t-9 54.5l-95 -510h-163l142 750h177l141 -397q9 -26 14.5 -49.5t10.5 -52.5l95 499h163zM474 948h178l-142 -147h-152z" />
    <glyph glyph-name="nacute" unicode="&#x144;" horiz-adv-x="609" 
d="M475 0h-173l68 357q7 35 2 51t-37 16q-23 0 -51.5 -8t-51.5 -24l-76 -392h-172l107 553h128l3 -47q47 31 100.5 46t94.5 15q47 0 76 -16t43 -43t16 -61.5t-5 -71.5zM383 748h178l-142 -147h-152z" />
    <glyph glyph-name="uni0145" unicode="&#x145;" horiz-adv-x="723" 
d="M593 0h-178l-142 400q-11 29 -16 55.5t-9 54.5l-95 -510h-163l142 750h177l141 -397q9 -26 14.5 -49.5t10.5 -52.5l95 499h163zM229 -46h142l-103 -194h-117z" />
    <glyph glyph-name="uni0146" unicode="&#x146;" horiz-adv-x="601" 
d="M475 0h-173l68 357q7 35 2 51t-37 16q-23 0 -51.5 -8t-51.5 -24l-76 -392h-172l107 553h128l3 -47q47 31 100.5 46t94.5 15q47 0 76 -16t43 -43t16 -61.5t-5 -71.5zM157 -46h142l-103 -194h-117z" />
    <glyph glyph-name="Ncaron" unicode="&#x147;" horiz-adv-x="723" 
d="M593 0h-178l-142 400q-11 29 -16 55.5t-9 54.5l-95 -510h-163l142 750h177l141 -397q9 -26 14.5 -49.5t10.5 -52.5l95 499h163zM316 960h104l44 -76l71 76h114l-141 -170h-117z" />
    <glyph glyph-name="ncaron" unicode="&#x148;" horiz-adv-x="601" 
d="M475 0h-173l68 357q7 35 2 51t-37 16q-23 0 -51.5 -8t-51.5 -24l-76 -392h-172l107 553h128l3 -47q47 31 100.5 46t94.5 15q47 0 76 -16t43 -43t16 -61.5t-5 -71.5zM207 760h104l44 -76l71 76h114l-141 -170h-117z" />
    <glyph glyph-name="napostrophe" unicode="&#x149;" horiz-adv-x="679" 
d="M186 700l-79 -213h-107l57 213h129zM553 0h-173l68 357q7 35 2 51t-37 16q-23 0 -51.5 -8t-51.5 -24l-76 -392h-172l107 553h128l3 -47q47 31 100.5 46t94.5 15q47 0 76 -16t43 -43t16 -61.5t-5 -71.5z" />
    <glyph glyph-name="Eng" unicode="&#x14a;" horiz-adv-x="723" 
d="M586 -32q-11 -59 -30.5 -96t-47.5 -58t-65 -29t-82 -8q-36 0 -70.5 4t-61.5 11l28 138q24 -5 44 -6.5t38 -1.5q17 0 29.5 2t21 8.5t14 18.5t8.5 32l3 17l-142 400q-11 29 -16 55.5t-9 54.5l-95 -510h-163l142 750h177l141 -397q9 -26 14.5 -49.5t10.5 -52.5l95 499h163z
" />
    <glyph glyph-name="eng" unicode="&#x14b;" horiz-adv-x="601" 
d="M468 -37q-11 -56 -26.5 -92t-38.5 -57t-55.5 -29t-76.5 -8q-30 0 -59.5 3t-54.5 11l27 136q19 -4 29.5 -5.5t24.5 -1.5q15 0 25 3t17 11t11.5 22.5t9.5 37.5l69 363q7 35 2 51t-37 16q-23 0 -51.5 -8t-51.5 -24l-76 -392h-172l107 553h128l3 -47q47 31 100.5 46t94.5 15
q47 0 76 -16t43 -43t16 -61.5t-5 -71.5z" />
    <glyph glyph-name="Omacron" unicode="&#x14c;" horiz-adv-x="742" 
d="M685 291q-32 -162 -127.5 -233t-256.5 -71q-78 0 -136 23t-93 67.5t-45.5 108.5t5.5 145l25 128q16 81 49 138.5t82 94t112.5 54t139.5 17.5q79 0 137.5 -23.5t93 -68t45 -108t-5.5 -144.5zM530 423q20 97 -8 140t-106 43q-79 0 -124.5 -43t-63.5 -140l-18 -96
q-19 -97 9 -140t107 -43q78 0 122.5 43t63.5 140zM330 935h296l-21 -106h-296z" />
    <glyph glyph-name="omacron" unicode="&#x14d;" horiz-adv-x="600" 
d="M226 -13q-130 0 -183.5 71t-28.5 197l16 80q24 120 99 176t202 56q67 0 113.5 -19.5t73 -55.5t34 -86t-4.5 -110l-16 -80q-12 -63 -37 -106.5t-62.5 -70.5t-88.5 -39.5t-117 -12.5zM311 432q-44 0 -71 -24t-41 -93l-13 -66q-13 -69 3.5 -98t60.5 -29t71.5 24.5t40.5 93.5
l13 66q14 69 -3 97.5t-61 28.5zM217 735h296l-21 -106h-296z" />
    <glyph glyph-name="Obreve" unicode="&#x14e;" horiz-adv-x="742" 
d="M685 291q-32 -162 -127.5 -233t-256.5 -71q-78 0 -136 23t-93 67.5t-45.5 108.5t5.5 145l25 128q16 81 49 138.5t82 94t112.5 54t139.5 17.5q79 0 137.5 -23.5t93 -68t45 -108t-5.5 -144.5zM530 423q20 97 -8 140t-106 43q-79 0 -124.5 -43t-63.5 -140l-18 -96
q-19 -97 9 -140t107 -43q78 0 122.5 43t63.5 140zM448 803q-34 0 -59 12t-40 32t-20 47.5t0 59.5h86q-7 -59 45 -59q51 0 67 59h94q-7 -33 -20.5 -60.5t-34.5 -47.5t-50.5 -31.5t-67.5 -11.5z" />
    <glyph glyph-name="obreve" unicode="&#x14f;" horiz-adv-x="600" 
d="M226 -13q-130 0 -183.5 71t-28.5 197l16 80q24 120 99 176t202 56q67 0 113.5 -19.5t73 -55.5t34 -86t-4.5 -110l-16 -80q-12 -63 -37 -106.5t-62.5 -70.5t-88.5 -39.5t-117 -12.5zM311 432q-44 0 -71 -24t-41 -93l-13 -66q-13 -69 3.5 -98t60.5 -29t71.5 24.5t40.5 93.5
l13 66q14 69 -3 97.5t-61 28.5zM334 603q-34 0 -59 12t-40 32t-20 47.5t0 59.5h86q-7 -59 45 -59q51 0 67 59h94q-7 -33 -20.5 -60.5t-34.5 -47.5t-50.5 -31.5t-67.5 -11.5z" />
    <glyph glyph-name="Ohungarumlaut" unicode="&#x150;" horiz-adv-x="742" 
d="M685 291q-32 -162 -127.5 -233t-256.5 -71q-78 0 -136 23t-93 67.5t-45.5 108.5t5.5 145l25 128q16 81 49 138.5t82 94t112.5 54t139.5 17.5q79 0 137.5 -23.5t93 -68t45 -108t-5.5 -144.5zM530 423q20 97 -8 140t-106 43q-79 0 -124.5 -43t-63.5 -140l-18 -96
q-19 -97 9 -140t107 -43q78 0 122.5 43t63.5 140zM549 948h124l-97 -147h-102zM378 948h124l-97 -147h-104z" />
    <glyph glyph-name="ohungarumlaut" unicode="&#x151;" horiz-adv-x="600" 
d="M226 -13q-130 0 -183.5 71t-28.5 197l16 80q24 120 99 176t202 56q67 0 113.5 -19.5t73 -55.5t34 -86t-4.5 -110l-16 -80q-12 -63 -37 -106.5t-62.5 -70.5t-88.5 -39.5t-117 -12.5zM311 432q-44 0 -71 -24t-41 -93l-13 -66q-13 -69 3.5 -98t60.5 -29t71.5 24.5t40.5 93.5
l13 66q14 69 -3 97.5t-61 28.5zM439 748h124l-97 -147h-102zM268 748h124l-97 -147h-104z" />
    <glyph glyph-name="OE" unicode="&#x152;" horiz-adv-x="1000" 
d="M1031 750l-27 -143h-322l-30 -154h290l-28 -142h-290l-33 -168h336l-27 -143h-598q-77 0 -134.5 21.5t-93 63.5t-47.5 104t4 143l24 120q16 81 49 137.5t81.5 92t111.5 52t139 16.5h595zM228 424l-18 -92q-19 -97 14 -142t112 -45h78l89 460h-77q-79 0 -129 -42t-69 -139
z" />
    <glyph glyph-name="oe" unicode="&#x153;" horiz-adv-x="918" 
d="M233 -13q-130 0 -187 67t-32 193l16 80q46 240 294 240q50 0 92.5 -17t65.5 -53q40 37 86.5 53.5t89.5 16.5q57 0 102.5 -15t74.5 -48t39 -86.5t-5 -130.5l-13 -68h-339l-2 -11q-6 -29 -1 -47.5t20 -29.5t39.5 -15t57.5 -4t78 7.5t86 21.5l-23 -118q-17 -8 -39 -14
t-46 -10.5t-48.5 -7t-46.5 -2.5q-57 0 -103 15.5t-72 50.5q-37 -35 -86.5 -51.5t-97.5 -16.5zM312 432q-44 0 -71.5 -26.5t-41.5 -95.5l-13 -66q-13 -69 4 -95.5t61 -26.5t72 26.5t41 95.5l13 66q13 69 -5.5 95.5t-59.5 26.5zM715 323l4 21q9 46 -7 72t-63 26q-44 0 -71 -26
t-37 -74l-4 -19h178z" />
    <glyph glyph-name="Racute" unicode="&#x154;" horiz-adv-x="678" 
d="M135 750h295q62 0 109 -10.5t77 -35.5t40.5 -66t-1.5 -102l-15 -75q-7 -35 -18 -59.5t-26.5 -42.5t-36.5 -31t-48 -23l81 -305h-186l-66 281h-118l-54 -281h-178zM288 621l-41 -210h82q34 0 57.5 3.5t40 13t26 26.5t15.5 45l7 41q9 45 -12.5 63t-79.5 18h-95zM442 948
h178l-142 -147h-152z" />
    <glyph glyph-name="racute" unicode="&#x155;" horiz-adv-x="413" 
d="M403 399q-48 -1 -96.5 -13.5t-83.5 -35.5l-67 -350h-172l107 553h126l-2 -77q41 36 95 62t126 29zM295 748h178l-142 -147h-152z" />
    <glyph glyph-name="uni0156" unicode="&#x156;" horiz-adv-x="678" 
d="M135 750h295q62 0 109 -10.5t77 -35.5t40.5 -66t-1.5 -102l-15 -75q-7 -35 -18 -59.5t-26.5 -42.5t-36.5 -31t-48 -23l81 -305h-186l-66 281h-118l-54 -281h-178zM288 621l-41 -210h82q34 0 57.5 3.5t40 13t26 26.5t15.5 45l7 41q9 45 -12.5 63t-79.5 18h-95zM218 -46
h142l-103 -194h-117z" />
    <glyph glyph-name="uni0157" unicode="&#x157;" horiz-adv-x="413" 
d="M403 399q-48 -1 -96.5 -13.5t-83.5 -35.5l-67 -350h-172l107 553h126l-2 -77q41 36 95 62t126 29zM-8 -46h142l-103 -194h-117z" />
    <glyph glyph-name="Rcaron" unicode="&#x158;" horiz-adv-x="678" 
d="M135 750h295q62 0 109 -10.5t77 -35.5t40.5 -66t-1.5 -102l-15 -75q-7 -35 -18 -59.5t-26.5 -42.5t-36.5 -31t-48 -23l81 -305h-186l-66 281h-118l-54 -281h-178zM288 621l-41 -210h82q34 0 57.5 3.5t40 13t26 26.5t15.5 45l7 41q9 45 -12.5 63t-79.5 18h-95zM291 960
h104l44 -76l71 76h114l-141 -170h-117z" />
    <glyph glyph-name="rcaron" unicode="&#x159;" horiz-adv-x="413" 
d="M403 399q-48 -1 -96.5 -13.5t-83.5 -35.5l-67 -350h-172l107 553h126l-2 -77q41 36 95 62t126 29zM135 760h104l44 -76l71 76h114l-141 -170h-117z" />
    <glyph glyph-name="Sacute" unicode="&#x15a;" 
d="M218 -10q-55 0 -119.5 8.5t-121.5 31.5l28 144q60 -22 115.5 -30.5t99.5 -8.5q73 0 111 20.5t38 74.5q0 14 -6 24t-19 17.5t-34 15t-51 17.5l-68 22q-59 19 -94.5 63.5t-35.5 110.5q0 134 83 197t243 63q30 0 61 -1.5t59 -5t52 -8t41 -10.5l-27 -137q-38 10 -85.5 15
t-89.5 5q-86 0 -120 -21.5t-34 -67.5q0 -14 7 -23.5t20.5 -16.5t32 -13t42.5 -14l70 -24q67 -23 103 -59.5t36 -102.5q0 -79 -23.5 -133.5t-67.5 -88.5t-106 -49t-140 -15zM412 948h178l-142 -147h-152z" />
    <glyph glyph-name="sacute" unicode="&#x15b;" horiz-adv-x="485" 
d="M179 -10q-23 0 -49.5 2t-53.5 6.5t-53 10.5t-47 14l25 127q58 -20 107 -25.5t77 -5.5q57 0 77 11.5t20 43.5q0 14 -12.5 21.5t-47.5 17.5l-57 16q-65 18 -93 53t-28 88q0 105 63 151t196 46q54 0 97.5 -7t66.5 -14l-24 -122q-14 4 -32.5 8t-39 7t-40.5 4.5t-36 1.5
q-57 0 -76.5 -11.5t-19.5 -38.5q0 -14 15.5 -21.5t53.5 -18.5l59 -17q34 -10 56.5 -24t35.5 -31t18 -37t5 -42q0 -60 -19.5 -101t-54.5 -66t-83 -36t-106 -11zM308 748h178l-142 -147h-152z" />
    <glyph glyph-name="Scircumflex" unicode="&#x15c;" 
d="M218 -10q-55 0 -119.5 8.5t-121.5 31.5l28 144q60 -22 115.5 -30.5t99.5 -8.5q73 0 111 20.5t38 74.5q0 14 -6 24t-19 17.5t-34 15t-51 17.5l-68 22q-59 19 -94.5 63.5t-35.5 110.5q0 134 83 197t243 63q30 0 61 -1.5t59 -5t52 -8t41 -10.5l-27 -137q-38 10 -85.5 15
t-89.5 5q-86 0 -120 -21.5t-34 -67.5q0 -14 7 -23.5t20.5 -16.5t32 -13t42.5 -14l70 -24q67 -23 103 -59.5t36 -102.5q0 -79 -23.5 -133.5t-67.5 -88.5t-106 -49t-140 -15zM364 967h117l74 -170h-105l-41 76l-74 -76h-113z" />
    <glyph glyph-name="scircumflex" unicode="&#x15d;" horiz-adv-x="485" 
d="M179 -10q-23 0 -49.5 2t-53.5 6.5t-53 10.5t-47 14l25 127q58 -20 107 -25.5t77 -5.5q57 0 77 11.5t20 43.5q0 14 -12.5 21.5t-47.5 17.5l-57 16q-65 18 -93 53t-28 88q0 105 63 151t196 46q54 0 97.5 -7t66.5 -14l-24 -122q-14 4 -32.5 8t-39 7t-40.5 4.5t-36 1.5
q-57 0 -76.5 -11.5t-19.5 -38.5q0 -14 15.5 -21.5t53.5 -18.5l59 -17q34 -10 56.5 -24t35.5 -31t18 -37t5 -42q0 -60 -19.5 -101t-54.5 -66t-83 -36t-106 -11zM265 767h117l74 -170h-105l-41 76l-74 -76h-113z" />
    <glyph glyph-name="Scedilla" unicode="&#x15e;" 
d="M184 -273q-20 0 -45.5 2t-45.5 6l17 84q14 -2 33.5 -3.5t43.5 -1.5q37 0 52 9.5t18 23.5l2 10q4 17 -8.5 26.5t-59.5 9.5h-25l19 98q-51 2 -105 10.5t-103 28.5l28 144q60 -22 115.5 -30.5t99.5 -8.5q73 0 111 20.5t38 74.5q0 14 -6 24t-19 17.5t-34 15t-51 17.5l-68 22
q-59 19 -94.5 63.5t-35.5 110.5q0 134 83 197t243 63q30 0 61 -1.5t59 -5t52 -8t41 -10.5l-27 -137q-38 10 -85.5 15t-89.5 5q-86 0 -120 -21.5t-34 -67.5q0 -14 7 -23.5t20.5 -16.5t32 -13t42.5 -14l70 -24q67 -23 103 -59.5t36 -102.5q0 -70 -18.5 -120.5t-52.5 -84.5
t-83.5 -52.5t-110.5 -24.5l-8 -41q30 -3 49 -12t28.5 -23t11.5 -32t-2 -38l-3 -15q-6 -31 -20.5 -51.5t-37.5 -32.5t-54 -17t-70 -5z" />
    <glyph glyph-name="scedilla" unicode="&#x15f;" horiz-adv-x="485" 
d="M122 -273q-20 0 -45.5 2t-45.5 6l17 84q14 -2 33.5 -3.5t43.5 -1.5q37 0 52 9.5t18 23.5l2 10q4 17 -8.5 26.5t-59.5 9.5h-25l19 100q-38 3 -77 11t-70 19l25 127q58 -20 107 -25.5t77 -5.5q57 0 77 11.5t20 43.5q0 14 -12.5 21.5t-47.5 17.5l-57 16q-65 18 -93 53
t-28 88q0 105 63 151t196 46q54 0 97.5 -7t66.5 -14l-24 -122q-14 4 -32.5 8t-39 7t-40.5 4.5t-36 1.5q-57 0 -76.5 -11.5t-19.5 -38.5q0 -14 15.5 -21.5t53.5 -18.5l59 -17q34 -10 56.5 -24t35.5 -31t18 -37t5 -42q0 -54 -15.5 -92.5t-44 -63.5t-68 -38.5t-87.5 -17.5
l-7 -39q30 -3 49 -12t28.5 -23t11.5 -32t-2 -38l-3 -15q-6 -31 -20.5 -51.5t-37.5 -32.5t-54 -17t-70 -5z" />
    <glyph glyph-name="Scaron" unicode="&#x160;" 
d="M218 -10q-55 0 -119.5 8.5t-121.5 31.5l28 144q60 -22 115.5 -30.5t99.5 -8.5q73 0 111 20.5t38 74.5q0 14 -6 24t-19 17.5t-34 15t-51 17.5l-68 22q-59 19 -94.5 63.5t-35.5 110.5q0 134 83 197t243 63q30 0 61 -1.5t59 -5t52 -8t41 -10.5l-27 -137q-38 10 -85.5 15
t-89.5 5q-86 0 -120 -21.5t-34 -67.5q0 -14 7 -23.5t20.5 -16.5t32 -13t42.5 -14l70 -24q67 -23 103 -59.5t36 -102.5q0 -79 -23.5 -133.5t-67.5 -88.5t-106 -49t-140 -15zM243 960h104l44 -76l71 76h114l-141 -170h-117z" />
    <glyph glyph-name="scaron" unicode="&#x161;" horiz-adv-x="485" 
d="M179 -10q-23 0 -49.5 2t-53.5 6.5t-53 10.5t-47 14l25 127q58 -20 107 -25.5t77 -5.5q57 0 77 11.5t20 43.5q0 14 -12.5 21.5t-47.5 17.5l-57 16q-65 18 -93 53t-28 88q0 105 63 151t196 46q54 0 97.5 -7t66.5 -14l-24 -122q-14 4 -32.5 8t-39 7t-40.5 4.5t-36 1.5
q-57 0 -76.5 -11.5t-19.5 -38.5q0 -14 15.5 -21.5t53.5 -18.5l59 -17q34 -10 56.5 -24t35.5 -31t18 -37t5 -42q0 -60 -19.5 -101t-54.5 -66t-83 -36t-106 -11zM164 760h104l44 -76l71 76h114l-141 -170h-117z" />
    <glyph glyph-name="uni0162" unicode="&#x162;" horiz-adv-x="655" 
d="M193 -273q-20 0 -45.5 2t-45.5 6l17 84q14 -2 33.5 -3.5t43.5 -1.5q37 0 52 9.5t18 23.5l2 10q4 17 -8.5 26.5t-59.5 9.5h-25l21 107h-36l114 594h-218l30 156h612l-30 -156h-217l-114 -594h-37l-9 -47q30 -3 49 -12t28.5 -23t11.5 -32t-2 -38l-3 -15q-6 -31 -20.5 -51.5
t-37.5 -32.5t-54 -17t-70 -5z" />
    <glyph glyph-name="uni0163" unicode="&#x163;" horiz-adv-x="439" 
d="M425 429h-142l-47 -240q-8 -39 -0.5 -53t40.5 -14q23 0 46.5 4t45.5 14l-23 -123q-31 -16 -72.5 -21.5t-76.5 -5.5l-7 -37q30 -3 49 -12t28.5 -23t11.5 -32t-2 -38l-3 -15q-6 -31 -20.5 -51.5t-37.5 -32.5t-54 -17t-70 -5q-20 0 -45.5 2t-45.5 6l17 84q14 -2 33.5 -3.5
t43.5 -1.5q37 0 52 9.5t18 23.5l2 10q4 17 -8.5 26.5t-59.5 9.5h-25l24 121q-32 22 -40.5 60t1.5 89l52 266h-84l24 124h84l22 115l180 34l-29 -149h142z" />
    <glyph glyph-name="Tcaron" unicode="&#x164;" horiz-adv-x="655" 
d="M56 594l30 156h612l-30 -156h-217l-114 -594h-177l114 594h-218zM268 960h104l44 -76l71 76h114l-141 -170h-117z" />
    <glyph glyph-name="tcaron" unicode="&#x165;" horiz-adv-x="443" 
d="M523 771l-68 -192h-107l45 192h130zM425 429h-142l-47 -240q-8 -39 -0.5 -53t40.5 -14q23 0 46.5 4t45.5 14l-23 -123q-31 -16 -73 -21.5t-77 -5.5q-46 0 -76 12.5t-46 35t-19.5 54.5t4.5 71l52 266h-84l24 124h84l22 115l180 34l-29 -149h142z" />
    <glyph glyph-name="Tbar" unicode="&#x166;" horiz-adv-x="666" 
d="M78 415h172l35 179h-218l30 156h612l-30 -156h-217l-35 -179h173l-22 -111h-172l-58 -304h-177l58 304h-173z" />
    <glyph glyph-name="tbar" unicode="&#x167;" horiz-adv-x="439" 
d="M15 351h79l16 78h-84l24 124h84l22 115l180 34l-29 -149h142l-24 -124h-142l-16 -78h145l-19 -101h-145l-12 -61q-8 -39 -0.5 -53t40.5 -14q23 0 46.5 4t45.5 14l-23 -123q-31 -16 -73 -21.5t-77 -5.5q-46 0 -76 12.5t-46 35t-19.5 54.5t4.5 71l17 87h-79z" />
    <glyph glyph-name="Utilde" unicode="&#x168;" horiz-adv-x="745" 
d="M318 750l-81 -423q-10 -51 -8 -84.5t15 -53.5t38 -28t62 -8t64 8t46 28t32 53.5t23 84.5l81 423h179l-94 -484q-15 -76 -42.5 -129t-68.5 -86.5t-97 -48.5t-129 -15q-80 0 -140 20t-97.5 59.5t-50 98t2.5 135.5l87 450h178zM528 799q-25 0 -39.5 7t-24 16t-17.5 16t-20 7
q-16 0 -25.5 -13t-16.5 -33h-96q7 25 18.5 51.5t28 48.5t38.5 36t51 14q26 0 41.5 -7t26 -16t18.5 -16t19 -7q18 0 26 14t13 34h96q-7 -24 -17 -50.5t-26 -49t-39 -37.5t-55 -15z" />
    <glyph glyph-name="utilde" unicode="&#x169;" horiz-adv-x="602" 
d="M84 553h172l-70 -357q-7 -35 -1.5 -52t35.5 -17q23 0 51 9t53 24l76 393h172l-107 -553h-128l-4 47q-48 -32 -95.5 -45.5t-92.5 -13.5q-50 0 -80 16t-44.5 43t-16 62t6.5 72zM410 599q-25 0 -39.5 7t-24 16t-17.5 16t-20 7q-16 0 -25.5 -13t-16.5 -33h-96q7 25 18.5 51.5
t28 48.5t38.5 36t51 14q26 0 41.5 -7t26 -16t18.5 -16t19 -7q18 0 26 14t13 34h96q-7 -24 -17 -50.5t-26 -49t-39 -37.5t-55 -15z" />
    <glyph glyph-name="Umacron" unicode="&#x16a;" horiz-adv-x="745" 
d="M318 750l-81 -423q-10 -51 -8 -84.5t15 -53.5t38 -28t62 -8t64 8t46 28t32 53.5t23 84.5l81 423h179l-94 -484q-15 -76 -42.5 -129t-68.5 -86.5t-97 -48.5t-129 -15q-80 0 -140 20t-97.5 59.5t-50 98t2.5 135.5l87 450h178zM343 935h296l-21 -106h-296z" />
    <glyph glyph-name="umacron" unicode="&#x16b;" horiz-adv-x="602" 
d="M84 553h172l-70 -357q-7 -35 -1.5 -52t35.5 -17q23 0 51 9t53 24l76 393h172l-107 -553h-128l-4 47q-48 -32 -95.5 -45.5t-92.5 -13.5q-50 0 -80 16t-44.5 43t-16 62t6.5 72zM217 735h296l-21 -106h-296z" />
    <glyph glyph-name="Ubreve" unicode="&#x16c;" horiz-adv-x="745" 
d="M318 750l-81 -423q-10 -51 -8 -84.5t15 -53.5t38 -28t62 -8t64 8t46 28t32 53.5t23 84.5l81 423h179l-94 -484q-15 -76 -42.5 -129t-68.5 -86.5t-97 -48.5t-129 -15q-80 0 -140 20t-97.5 59.5t-50 98t2.5 135.5l87 450h178zM462 803q-34 0 -59 12t-40 32t-20 47.5t0 59.5
h86q-7 -59 45 -59q51 0 67 59h94q-7 -33 -20.5 -60.5t-34.5 -47.5t-50.5 -31.5t-67.5 -11.5z" />
    <glyph glyph-name="ubreve" unicode="&#x16d;" horiz-adv-x="602" 
d="M84 553h172l-70 -357q-7 -35 -1.5 -52t35.5 -17q23 0 51 9t53 24l76 393h172l-107 -553h-128l-4 47q-48 -32 -95.5 -45.5t-92.5 -13.5q-50 0 -80 16t-44.5 43t-16 62t6.5 72zM336 603q-34 0 -59 12t-40 32t-20 47.5t0 59.5h86q-7 -59 45 -59q51 0 67 59h94
q-7 -33 -20.5 -60.5t-34.5 -47.5t-50.5 -31.5t-67.5 -11.5z" />
    <glyph glyph-name="Uring" unicode="&#x16e;" horiz-adv-x="745" 
d="M318 750l-81 -423q-10 -51 -8 -84.5t15 -53.5t38 -28t62 -8t64 8t46 28t32 53.5t23 84.5l81 423h179l-94 -484q-15 -76 -42.5 -129t-68.5 -86.5t-97 -48.5t-129 -15q-80 0 -140 20t-97.5 59.5t-50 98t2.5 135.5l87 450h178zM473 850q20 0 35.5 15t15.5 39q0 15 -9 24
t-24 9q-20 0 -35.5 -15t-15.5 -39q0 -15 9 -24t24 -9zM504 1005q42 0 67 -24.5t25 -65.5q0 -29 -11.5 -53.5t-30 -42t-43 -27.5t-51.5 -10q-42 0 -67 24.5t-25 65.5q0 29 11.5 53.5t30 42t43 27.5t51.5 10z" />
    <glyph glyph-name="uring" unicode="&#x16f;" horiz-adv-x="602" 
d="M84 553h172l-70 -357q-7 -35 -1.5 -52t35.5 -17q23 0 51 9t53 24l76 393h172l-107 -553h-128l-4 47q-48 -32 -95.5 -45.5t-92.5 -13.5q-50 0 -80 16t-44.5 43t-16 62t6.5 72zM348 650q20 0 35.5 15t15.5 39q0 15 -9 24t-24 9q-20 0 -35.5 -15t-15.5 -39q0 -15 9 -24
t24 -9zM379 805q42 0 67 -24.5t25 -65.5q0 -29 -11.5 -53.5t-30 -42t-43 -27.5t-51.5 -10q-42 0 -67 24.5t-25 65.5q0 29 11.5 53.5t30 42t43 27.5t51.5 10z" />
    <glyph glyph-name="Uhungarumlaut" unicode="&#x170;" horiz-adv-x="745" 
d="M318 750l-81 -423q-10 -51 -8 -84.5t15 -53.5t38 -28t62 -8t64 8t46 28t32 53.5t23 84.5l81 423h179l-94 -484q-15 -76 -42.5 -129t-68.5 -86.5t-97 -48.5t-129 -15q-80 0 -140 20t-97.5 59.5t-50 98t2.5 135.5l87 450h178zM566 948h124l-97 -147h-102zM395 948h124
l-97 -147h-104z" />
    <glyph glyph-name="uhungarumlaut" unicode="&#x171;" horiz-adv-x="602" 
d="M84 553h172l-70 -357q-7 -35 -1.5 -52t35.5 -17q23 0 51 9t53 24l76 393h172l-107 -553h-128l-4 47q-48 -32 -95.5 -45.5t-92.5 -13.5q-50 0 -80 16t-44.5 43t-16 62t6.5 72zM434 748h124l-97 -147h-102zM263 748h124l-97 -147h-104z" />
    <glyph glyph-name="Uogonek" unicode="&#x172;" horiz-adv-x="745" 
d="M356 -232q-38 0 -64 8.5t-41 22.5t-20 33t-1 40l2 11q5 32 31.5 59.5t60.5 44.5q-77 2 -134 23t-92.5 60t-47.5 97t3 133l87 450h178l-81 -423q-10 -51 -8 -84.5t15 -53.5t38 -28t62 -8t64 8t46 28t32 53.5t23 84.5l81 423h179l-94 -484q-23 -117 -75.5 -180.5
t-140.5 -85.5h2q-48 -26 -74.5 -52t-31.5 -49l-2 -10q-4 -20 9.5 -24.5t32.5 -4.5q15 0 32.5 2t28.5 5l-17 -88q-14 -4 -35 -7.5t-48 -3.5z" />
    <glyph glyph-name="uogonek" unicode="&#x173;" horiz-adv-x="602" 
d="M360 -232q-38 0 -64 8.5t-41 22.5t-20 33t-1 40l2 11q3 19 15 37.5t29 34t38 27t42 18.5h-23l-4 47q-48 -32 -95.5 -45.5t-92.5 -13.5q-50 0 -80 16t-44.5 43t-16 62t6.5 72l73 372h172l-70 -357q-7 -35 -1.5 -52t35.5 -17q23 0 51 9t53 24l76 393h172l-107 -553
q-48 -26 -74.5 -52t-31.5 -49l-2 -10q-4 -20 9.5 -24.5t32.5 -4.5q15 0 32.5 2t28.5 5l-17 -88q-14 -4 -35 -7.5t-48 -3.5z" />
    <glyph glyph-name="Wcircumflex" unicode="&#x174;" horiz-adv-x="1002" 
d="M523 401q-1 32 2.5 78.5t8.5 91.5q-16 -46 -31.5 -92t-28.5 -78l-159 -401h-218l-21 750h178l-2 -395q-1 -42 -2.5 -83.5t-5.5 -89.5q18 49 32.5 89t31.5 84l156 395h198l7 -395q1 -41 -1.5 -78.5t-8.5 -88.5q16 45 31 85t31 82l158 395h177l-325 -750h-204zM548 967h117
l74 -170h-105l-41 76l-74 -76h-113z" />
    <glyph glyph-name="wcircumflex" unicode="&#x175;" horiz-adv-x="854" 
d="M206 553l12 -292q1 -23 0 -47.5t-3 -53.5h3q7 25 14.5 51.5t18.5 49.5l130 292h165l18 -292q1 -23 0.5 -46t-2.5 -55h2q9 32 17 55t19 46l131 292h145l-254 -553h-171l-19 285q-2 25 0.5 53.5t6.5 66.5h-2q-11 -41 -20 -68t-20 -52l-127 -285h-177l-44 553h157zM445 767
h117l74 -170h-105l-41 76l-74 -76h-113z" />
    <glyph glyph-name="Ycircumflex" unicode="&#x176;" horiz-adv-x="659" 
d="M393 295l-56 -295h-178l56 293l-151 457h181l53 -188q9 -33 16 -64.5t13 -75.5q22 44 41 75.5t41 64.5l124 188h186zM370 967h117l74 -170h-105l-41 76l-74 -76h-113z" />
    <glyph glyph-name="ycircumflex" unicode="&#x177;" horiz-adv-x="588" 
d="M302 767h117l74 -170h-105l-41 76l-74 -76h-113zM615 553l-415 -766h-179l115 213l-92 553h170l35 -289q3 -26 4 -53t0 -68q16 41 28 68t24 52l138 290h172z" />
    <glyph glyph-name="Ydieresis" unicode="&#x178;" horiz-adv-x="659" 
d="M393 295l-56 -295h-178l56 293l-151 457h181l53 -188q9 -33 16 -64.5t13 -75.5q22 44 41 75.5t41 64.5l124 188h186zM275 938h112l-24 -126h-112zM465 938h112l-24 -126h-112z" />
    <glyph glyph-name="Zacute" unicode="&#x179;" horiz-adv-x="653" 
d="M280 222l-18 -18t-17.5 -16.5t-20.5 -19t-27 -24.5h369l-27 -144h-575l26 137l370 392q23 24 41.5 41.5t38.5 36.5h-343l27 143h549l-26 -136zM422 948h178l-142 -147h-152z" />
    <glyph glyph-name="zacute" unicode="&#x17a;" horiz-adv-x="519" 
d="M491 448l-230 -255q-17 -19 -35 -36t-39 -36h253l-22 -121h-458l20 105l230 253q16 17 34 37t39 37h-229l24 121h433zM325 748h178l-142 -147h-152z" />
    <glyph glyph-name="Zdotaccent" unicode="&#x17b;" horiz-adv-x="653" 
d="M280 222l-18 -18t-17.5 -16.5t-20.5 -19t-27 -24.5h369l-27 -144h-575l26 137l370 392q23 24 41.5 41.5t38.5 36.5h-343l27 143h549l-26 -136zM376 938h114l-24 -126h-114z" />
    <glyph glyph-name="zdotaccent" unicode="&#x17c;" horiz-adv-x="519" 
d="M491 448l-230 -255q-17 -19 -35 -36t-39 -36h253l-22 -121h-458l20 105l230 253q16 17 34 37t39 37h-229l24 121h433zM274 738h114l-24 -126h-114z" />
    <glyph glyph-name="Zcaron" unicode="&#x17d;" horiz-adv-x="653" 
d="M280 222l-18 -18t-17.5 -16.5t-20.5 -19t-27 -24.5h369l-27 -144h-575l26 137l370 392q23 24 41.5 41.5t38.5 36.5h-343l27 143h549l-26 -136zM277 960h104l44 -76l71 76h114l-141 -170h-117z" />
    <glyph glyph-name="zcaron" unicode="&#x17e;" horiz-adv-x="519" 
d="M491 448l-230 -255q-17 -19 -35 -36t-39 -36h253l-22 -121h-458l20 105l230 253q16 17 34 37t39 37h-229l24 121h433zM167 760h104l44 -76l71 76h114l-141 -170h-117z" />
    <glyph glyph-name="longs" unicode="&#x17f;" horiz-adv-x="378" 
d="M157 0h-173l121 622q7 34 21.5 63t40 49t63 31.5t89.5 11.5q38 0 72.5 -4t56.5 -10l-22 -113q-16 3 -33.5 5t-35.5 2q-47 0 -63.5 -16t-23.5 -55z" />
    <glyph glyph-name="uni0180" unicode="&#x180;" horiz-adv-x="629" 
d="M57 680h75l13 64l178 30l-19 -94h125l-22 -111h-125l-12 -61q36 21 78.5 33t85.5 12q50 0 82.5 -17.5t49.5 -46t20.5 -65.5t-3.5 -77l-30 -158q-11 -56 -31 -94t-51 -61t-72.5 -33.5t-94.5 -10.5q-46 0 -88 14t-68 37l-17 -41h-131l111 569h-76zM203 159q13 -12 37 -21
t53 -9q40 0 62.5 22.5t33.5 77.5l19 102q8 45 -4.5 64.5t-49.5 19.5q-26 0 -56 -10t-52 -26z" />
    <glyph glyph-name="uni0181" unicode="&#x181;" horiz-adv-x="789" 
d="M211 750h353q53 0 95 -8t69.5 -27.5t38.5 -52t1 -81.5l-11 -58q-5 -22 -13 -43t-21.5 -39t-33.5 -32.5t-48 -23.5q61 -13 80 -52t8 -90l-15 -79q-11 -54 -32 -86.5t-55.5 -49.5t-84.5 -22.5t-119 -5.5h-312l121 628h-27q-41 0 -56 -23t-11 -73h-124q-5 57 6.5 98t37 67.5
t64.5 39.5t89 13zM352 327l-40 -202h98q32 0 54.5 3.5t37 13t23.5 25.5t14 41l6 33q9 47 -9.5 66.5t-77.5 19.5h-106zM410 625l-35 -179h102q19 0 35.5 2t29 9.5t21 22.5t13.5 40l7 37q8 41 -9.5 54.5t-66.5 13.5h-97z" />
    <glyph glyph-name="uni0182" unicode="&#x182;" horiz-adv-x="652" 
d="M135 750h505l-25 -129h-327l-33 -172h116q138 0 190.5 -51t31.5 -161l-12 -65q-11 -61 -35 -95.5t-60 -51.5t-84 -21t-108 -4h-304zM281 125q58 0 88 19.5t38 64.5l4 25q4 28 1.5 46t-14.5 28t-33.5 13.5t-55.5 3.5h-78l-40 -200h90z" />
    <glyph glyph-name="uni0183" unicode="&#x183;" horiz-adv-x="620" 
d="M409 508q50 0 83 -15.5t51 -43t21.5 -64.5t-4.5 -80l-22 -113q-12 -57 -32 -95.5t-50 -62.5t-71.5 -34t-95.5 -10q-50 0 -90.5 14t-66.5 37l-17 -41h-131l147 760h479l-25 -133h-306l-33 -164q36 21 78 33t85 12zM187 156q12 -12 36 -21t53 -9q40 0 63 22.5t34 77.5
l11 63q8 45 -4.5 64.5t-49.5 19.5q-26 0 -55.5 -10t-52.5 -26z" />
    <glyph glyph-name="uni0184" unicode="&#x184;" horiz-adv-x="647" 
d="M400 519q110 0 155.5 -48t25.5 -154l-25 -136q-11 -57 -32 -92.5t-52.5 -55t-74 -26.5t-96.5 -7h-116q-54 0 -94 8.5t-64.5 29.5t-32.5 56t2 87l112 569h172l-45 -231h165zM173 200q-8 -38 5.5 -51.5t51.5 -13.5h77q41 0 56.5 17t23.5 57l20 105q4 18 4 31t-5.5 20.5
t-17.5 11t-33 3.5h-147z" />
    <glyph glyph-name="uni0185" unicode="&#x185;" horiz-adv-x="593" 
d="M394 567q48 0 80.5 -14t51.5 -39t24 -58t-2 -72l-33 -172q-23 -115 -88.5 -168.5t-174.5 -53.5h-75q-54 0 -93.5 8.5t-64 29.5t-32.5 56t3 87l112 573l178 30l-50 -252q36 21 78.5 33t85.5 12zM166 190q-8 -38 7.5 -51.5t53.5 -13.5h26q40 0 60.5 22.5t31.5 77.5l23 120
q8 45 -4.5 64.5t-49.5 19.5q-26 0 -56 -10t-52 -26z" />
    <glyph glyph-name="uni0186" unicode="&#x186;" horiz-adv-x="642" 
d="M141 735q18 6 42 10.5t51 8t55.5 5t54.5 1.5q82 0 140.5 -19t92 -61t41 -108.5t-10.5 -160.5l-23 -118q-18 -89 -46.5 -147t-74 -93t-112 -49t-160.5 -14q-23 0 -50 1.5t-54 4.5t-52 9t-45 15l30 150q45 -14 93 -18.5t88 -4.5q53 0 89 10t59.5 31t37 52.5t22.5 75.5
l24 125q8 40 6.5 70.5t-17 51t-47.5 31t-86 10.5q-47 0 -93 -4.5t-85 -12.5z" />
    <glyph glyph-name="uni0187" unicode="&#x187;" horiz-adv-x="649" 
d="M617 587q-35 8 -79 12.5t-91 4.5q-54 0 -90 -10.5t-59.5 -31t-37 -51t-21.5 -70.5l-24 -125q-9 -44 -7.5 -75.5t17 -52.5t47.5 -31t85 -10q40 0 90 4.5t101 18.5l-30 -150q-23 -9 -50.5 -15t-56 -9t-56.5 -4.5t-51 -1.5q-175 0 -237.5 84t-27.5 261l23 118
q18 93 50.5 152.5t81 94t113 47.5t146.5 13q14 0 28.5 -0.5t28.5 -1.5q19 77 61.5 113t123.5 36q19 0 43 -2t41 -8l-22 -112q-23 6 -45 6q-29 0 -44.5 -15t-21.5 -47l-9 -42z" />
    <glyph glyph-name="uni0188" unicode="&#x188;" horiz-adv-x="563" 
d="M482 420q-22 7 -55.5 12.5t-74.5 5.5q-37 0 -63.5 -7t-45.5 -22.5t-30.5 -39.5t-17.5 -58l-14 -67q-7 -36 -4.5 -60t15.5 -38t37 -20t61 -6q32 0 69 5t79 19l-25 -129q-18 -7 -41.5 -12t-48.5 -8.5t-48.5 -5t-40.5 -1.5q-142 0 -193 73t-25 205l14 72q13 67 39.5 111
t66 70.5t93 37t119.5 10.5q8 0 17.5 -0.5t18.5 -0.5q10 38 27.5 64t40 41.5t49.5 22t57 6.5q18 0 42 -2t43 -8l-20 -103q-11 4 -24 5t-24 1q-28 0 -45.5 -13t-24.5 -42z" />
    <glyph glyph-name="uni0189" unicode="&#x189;" horiz-adv-x="724" 
d="M14 445h78l59 305h282q79 0 137 -17t92.5 -53t44.5 -92.5t-6 -135.5l-35 -188q-14 -74 -38.5 -124.5t-64 -81.5t-97 -44.5t-136.5 -13.5h-324l62 324h-78zM299 599l-30 -154h160l-24 -121h-160l-33 -173h109q46 0 76.5 9.5t49.5 28.5t29.5 47.5t18.5 66.5l29 148
q7 35 7.5 62.5t-10.5 46.5t-36.5 29t-70.5 10h-115z" />
    <glyph glyph-name="uni018A" unicode="&#x18a;" horiz-adv-x="829" 
d="M111 0l121 628h-27q-41 0 -56 -23t-11 -73h-124q-5 57 6.5 98t37 67.5t64.5 39.5t89 13h327q79 0 137 -17t92.5 -53t44.5 -92.5t-6 -135.5l-35 -188q-14 -74 -38.5 -124.5t-64 -81.5t-97 -44.5t-136.5 -13.5h-324zM404 599l-87 -448h109q46 0 76.5 9.5t49.5 28.5
t29.5 47.5t18.5 66.5l29 148q7 35 7.5 62.5t-10.5 46.5t-36.5 29t-70.5 10h-115z" />
    <glyph glyph-name="uni018B" unicode="&#x18b;" horiz-adv-x="678" 
d="M543 0h-296q-60 0 -106 10.5t-75.5 35t-40.5 65.5t1 102l12 63q10 55 32.5 89t59.5 52.5t89 25t121 6.5h112l33 172h-327l25 129h505zM388 125l40 200h-78q-34 0 -58 -3.5t-40.5 -13.5t-26 -28t-15.5 -46l-4 -25q-9 -45 12.5 -64.5t79.5 -19.5h90z" />
    <glyph glyph-name="uni018C" unicode="&#x18c;" horiz-adv-x="622" 
d="M258 508q48 0 85 -12t64 -33l33 164h-306l25 133h479l-147 -760h-131l-3 41q-35 -23 -78.5 -37t-89.5 -14q-109 0 -152 58t-20 173l22 113q7 39 23.5 71t43.5 55t64.5 35.5t87.5 12.5zM383 337q-17 16 -42.5 26t-51.5 10q-37 0 -58.5 -19.5t-29.5 -64.5l-11 -63
q-11 -55 2 -77.5t53 -22.5q29 0 57 9t46 21z" />
    <glyph glyph-name="uni018D" unicode="&#x18d;" horiz-adv-x="596" 
d="M232 -71q3 16 -4 25t-24.5 19.5t-45.5 26t-68 45.5q-55 41 -71 107.5t-2 139.5l9 46q12 60 38.5 103.5t65 71.5t86 41t101.5 13q61 0 108.5 -17.5t78 -50.5t42 -80.5t-0.5 -107.5l-9 -46q-22 -110 -83.5 -161t-154.5 -61q35 -21 56.5 -39t32 -34.5t12.5 -33.5t-2 -37
l-2 -10q-5 -22 -19.5 -42.5t-40.5 -36t-64.5 -24.5t-89.5 -9q-21 0 -45.5 2t-48 5.5t-45 9.5t-36.5 14l23 119q38 -15 72 -20.5t67 -5.5q9 0 20 1t20 3t15.5 6.5t7.5 11.5zM305 432q-45 0 -72.5 -23.5t-41.5 -85.5l-5 -22q-14 -62 4.5 -95t63.5 -33t73.5 26.5t42.5 88.5
l5 22q14 62 -5.5 92t-64.5 30z" />
    <glyph glyph-name="uni018E" unicode="&#x18e;" 
d="M618 750l-145 -750h-514l27 143h337l33 168h-290l28 142h290l30 154h-323l27 143h500z" />
    <glyph glyph-name="uni018F" unicode="&#x18f;" horiz-adv-x="731" 
d="M51 447h476l4 23q6 31 3 56.5t-19.5 44t-49.5 28.5t-88 10q-57 0 -119 -12.5t-122 -31.5l28 152q54 22 117 34t123 12q177 0 253 -88t41 -269l-17 -91q-17 -93 -51 -156t-81.5 -101t-107.5 -54.5t-130 -16.5q-62 0 -121 17.5t-101 59.5t-60 111t2 171zM198 312l-3 -15
q-6 -32 -3 -61t17.5 -51t41.5 -35t69 -13q44 0 75 12t52 33.5t33.5 51t19.5 63.5l3 15h-305z" />
    <glyph glyph-name="uni0190" unicode="&#x190;" horiz-adv-x="605" 
d="M362 318q-32 0 -61 -5t-51.5 -17.5t-35.5 -35t-13 -57.5q0 -38 32 -54.5t98 -16.5q27 0 56.5 3t58.5 8t56.5 12t50.5 15l-29 -146q-39 -15 -98.5 -25.5t-125.5 -10.5q-144 0 -214 51t-70 138q0 48 15 85.5t40 65.5t58.5 45.5t70.5 25.5q-46 16 -70.5 51t-24.5 82
q0 119 86.5 175t251.5 56q58 0 111.5 -9t87.5 -23l-28 -138q-38 14 -80 20t-87 6q-87 0 -125.5 -22.5t-38.5 -78.5q0 -38 31 -54t81 -16h101l-26 -130h-108z" />
    <glyph glyph-name="uni0191" unicode="&#x191;" horiz-adv-x="586" 
d="M625 750l-29 -151h-312l-35 -176h280l-29 -151h-280l-32 -164h1l-22 -116q-8 -43 -24 -74t-41.5 -51.5t-61.5 -30.5t-84 -10q-33 0 -63 2.5t-56 8.5l27 135q16 -5 35 -6.5t30 -1.5q23 0 40.5 12.5t24.5 44.5l7 38l10 49l124 642h490z" />
    <glyph glyph-name="florin" unicode="&#x192;" horiz-adv-x="432" 
d="M312 553h134l-25 -126h-134l-82 -427q-17 -87 -64.5 -130.5t-138.5 -43.5q-37 0 -69 2.5t-58 9.5l24 125q16 -5 34.5 -7t30.5 -2q35 0 50 15t20 42l80 416h-87l25 126h87l14 69q7 34 21.5 63t39.5 49t62 31.5t89 11.5q38 0 73.5 -4t57.5 -10l-22 -113q-16 3 -33.5 5
t-36.5 2q-23 0 -38 -4t-24.5 -12t-15 -22t-8.5 -33z" />
    <glyph glyph-name="uni0193" unicode="&#x193;" horiz-adv-x="693" 
d="M631 590q-35 8 -82.5 13t-94.5 5q-54 0 -90.5 -9t-60.5 -28.5t-38 -50.5t-23 -74l-27 -136q-8 -44 -7.5 -75.5t15.5 -52.5t47 -31t85 -10q22 0 40 1.5t35 6.5l28 147h-114l27 134h280l-79 -405q-57 -20 -123.5 -27.5t-131.5 -7.5q-91 0 -152.5 20t-95 61.5t-41 105.5
t10.5 153l23 118q18 94 51.5 154.5t82.5 95.5t114.5 48.5t148.5 13.5q32 0 65 -3q18 76 62 113t126 37q19 0 41.5 -2t39.5 -8l-22 -112q-23 6 -45 6q-26 0 -43 -13.5t-23 -45.5l-21 -104h-1z" />
    <glyph glyph-name="uni0194" unicode="&#x194;" horiz-adv-x="611" 
d="M53 182q7 35 19.5 55.5t30.5 42.5l116 138l-151 332h178l85 -200l168 200h182l-291 -340l47 -110q7 -15 14 -35t11.5 -40.5t6.5 -40t-1 -35.5l-2 -10q-6 -32 -20 -59.5t-39.5 -48t-65 -32.5t-97.5 -12q-60 0 -99.5 18.5t-62 46.5t-29.5 60t-2 59zM281 283l-3 -4
q-33 -39 -48.5 -59t-18.5 -36l-1 -6q-2 -14 1.5 -23t10 -14.5t16 -8t19.5 -2.5q21 0 36 10.5t19 33.5l1 6q2 14 -5 37t-25 62z" />
    <glyph glyph-name="uni0195" unicode="&#x195;" horiz-adv-x="916" 
d="M503 200q-7 -35 6.5 -52t49.5 -17q37 0 56.5 17t26.5 52l69 353h173l-73 -374q-7 -37 -21.5 -71.5t-43.5 -61t-77 -42.5t-123 -16q-74 0 -119.5 18t-69.5 47.5t-29 66t2 73.5l31 164q7 35 3 51t-34 16q-21 0 -46.5 -8.5t-50.5 -22.5l-76 -393h-173l145 744l178 30
l-49 -250q38 20 78.5 31.5t75.5 11.5q43 0 71.5 -13t44 -36t18 -54.5t-4.5 -68.5z" />
    <glyph glyph-name="uni0196" unicode="&#x196;" horiz-adv-x="348" 
d="M129 744l178 30l-116 -591q-8 -39 3.5 -50t41.5 -11q14 0 33.5 3.5t38.5 12.5l-24 -123q-32 -14 -66 -19.5t-73 -5.5q-85 0 -115 49.5t-13 132.5z" />
    <glyph glyph-name="uni0197" unicode="&#x197;" horiz-adv-x="371" 
d="M200 0h-178l63 329h-115l22 111h115l60 310h178l-60 -310h116l-22 -111h-116z" />
    <glyph glyph-name="uni0198" unicode="&#x198;" horiz-adv-x="722" 
d="M489 669q16 21 33.5 38.5t39.5 30t49 19.5t62 7q26 0 52 -3t45 -11l-26 -140q-14 5 -25.5 7t-26.5 2q-28 0 -44 -15t-38 -42l-148 -184l181 -378h-204l-133 308h-79l-59 -308h-178l145 750h178l-58 -299h67z" />
    <glyph glyph-name="uni0199" unicode="&#x199;" horiz-adv-x="598" 
d="M227 365h45l150 188h214l-222 -259l112 -294h-195l-76 225h-55l-43 -225h-173l117 601q9 45 24.5 77.5t41 53.5t62 31.5t86.5 10.5q33 0 60 -3t53 -9l-22 -116q-17 5 -33.5 6.5t-32.5 1.5q-29 0 -45.5 -13t-22.5 -44z" />
    <glyph glyph-name="uni019A" unicode="&#x19a;" horiz-adv-x="409" 
d="M48 0l65 336h-108l21 107h108l59 301l178 30l-64 -331h109l-21 -107h-109l-65 -336h-173z" />
    <glyph glyph-name="uni019B" unicode="&#x19b;" horiz-adv-x="564" 
d="M85 529l127 52l-3 34q-2 17 -9.5 27t-28.5 10q-23 0 -56 -13l23 116q47 22 102 22q34 0 57 -9t38 -25.5t23.5 -40.5t14.5 -54l141 58l-21 -107l-104 -43l99 -556h-164l-30 265q-3 25 -4 51.5t-2 68.5q-14 -41 -26.5 -68t-25.5 -53l-142 -264h-174l279 477l-135 -55z" />
    <glyph glyph-name="uni019C" unicode="&#x19c;" horiz-adv-x="953" 
d="M124 751h174l-104 -539q-8 -37 1 -56.5t41 -19.5q21 0 52.5 8t55.5 22l113 585h174l-104 -539q-8 -38 1.5 -58t41.5 -20q21 0 52.5 8.5t55.5 23.5l113 585h172l-145 -751h-130l-3 47q-45 -31 -91.5 -45.5t-88.5 -14.5q-47 0 -80.5 18t-47.5 44q-48 -31 -100 -46.5
t-95 -15.5q-44 0 -79.5 13t-58 39t-30.5 65.5t2 93.5z" />
    <glyph glyph-name="uni019D" unicode="&#x19d;" horiz-adv-x="723" 
d="M593 0h-178l-142 400q-11 29 -16 55.5t-9 54.5l-95 -510h-1l-1 -8q-8 -43 -22.5 -74t-37.5 -51.5t-56 -30.5t-79 -10q-33 0 -63 2.5t-56 8.5l27 135q16 -5 35 -6.5t30 -1.5q23 0 40 12t24 41l139 733h177l141 -397q9 -26 14.5 -49.5t10.5 -52.5l95 499h163z" />
    <glyph glyph-name="uni019E" unicode="&#x19e;" horiz-adv-x="601" 
d="M432 -216h-173l111 573q7 35 2 51t-37 16q-23 0 -51.5 -8t-51.5 -24l-76 -392h-172l107 553h128l3 -47q47 31 100.5 46t94.5 15q47 0 76 -16t43 -43t16 -61.5t-5 -71.5z" />
    <glyph glyph-name="uni019F" unicode="&#x19f;" horiz-adv-x="742" 
d="M685 291q-32 -162 -127.5 -233t-256.5 -71q-78 0 -136 23t-93 67.5t-45.5 108.5t5.5 145l25 128q16 81 49 138.5t82 94t112.5 54t139.5 17.5q79 0 137.5 -23.5t93 -68t45 -108t-5.5 -144.5zM326 141q79 0 124 41.5t65 136.5h-312q-16 -93 13.5 -135.5t109.5 -42.5z
M416 609q-78 0 -124 -39.5t-66 -129.5h312q13 88 -16 128.5t-106 40.5z" />
    <glyph glyph-name="Ohorn" unicode="&#x1a0;" horiz-adv-x="805" 
d="M685 291q-32 -162 -127.5 -233t-256.5 -71q-78 0 -136 23t-93 67.5t-45.5 108.5t5.5 145l25 128q16 81 49 138.5t82 94t112.5 54t139.5 17.5q72 0 126 -19.5t90 -55.5h40q25 0 40.5 8t23.5 23t9.5 35t-0.5 44h125q6 -112 -34.5 -170.5t-144.5 -60.5q5 -32 4 -69t-9 -79z
M530 423q20 97 -8 140t-106 43q-79 0 -124.5 -43t-63.5 -140l-18 -96q-19 -97 9 -140t107 -43q78 0 122.5 43t63.5 140z" />
    <glyph glyph-name="ohorn" unicode="&#x1a1;" horiz-adv-x="679" 
d="M226 -13q-130 0 -183.5 71t-28.5 197l16 80q24 120 99 176t202 56q69 0 116.5 -21t73.5 -59h16q24 0 38 7.5t21.5 21t9 32.5t-0.5 41h113q5 -104 -33 -157.5t-131 -55.5q1 -19 -1 -39t-6 -41l-16 -80q-12 -63 -37 -106.5t-62.5 -70.5t-88.5 -39.5t-117 -12.5zM311 432
q-44 0 -71 -24t-41 -93l-13 -66q-13 -69 3.5 -98t60.5 -29t71.5 24.5t40.5 93.5l13 66q14 69 -3 97.5t-61 28.5z" />
    <glyph glyph-name="uni01A2" unicode="&#x1a2;" horiz-adv-x="1077" 
d="M685 291q-32 -162 -127.5 -233t-256.5 -71q-78 0 -136 23t-93 67.5t-45.5 108.5t5.5 145l25 128q16 81 49 138.5t82 94t112.5 54t139.5 17.5q65 0 115.5 -16t85.5 -46q50 29 105.5 45.5t101.5 16.5q62 0 104 -17.5t66 -48.5t30.5 -74t-3.5 -93l-146 -746h-177l142 728
q11 55 -1 76.5t-60 21.5q-43 0 -93 -22q18 -72 0 -169zM530 423q20 97 -8 140t-106 43q-79 0 -124.5 -43t-63.5 -140l-18 -96q-19 -97 9 -140t107 -43q78 0 122.5 43t63.5 140z" />
    <glyph glyph-name="uni01A3" unicode="&#x1a3;" horiz-adv-x="946" 
d="M226 -13q-130 0 -183.5 71t-28.5 197l16 80q24 120 99 176t202 56q57 0 98 -14t69 -40q48 26 97 40.5t91 14.5q69 0 113 -19t67.5 -50t28.5 -71.5t-3 -82.5l-109 -561h-172l108 553q10 54 -4 75t-62 21q-25 0 -50.5 -7t-51.5 -20q4 -25 2.5 -52.5t-6.5 -57.5l-16 -80
q-12 -63 -37 -106.5t-62.5 -70.5t-88.5 -39.5t-117 -12.5zM311 432q-44 0 -71 -24t-41 -93l-13 -66q-13 -69 3.5 -98t60.5 -29t71.5 24.5t40.5 93.5l13 66q14 69 -3 97.5t-61 28.5z" />
    <glyph glyph-name="uni01A4" unicode="&#x1a4;" horiz-adv-x="769" 
d="M211 750h338q60 0 106.5 -10.5t76.5 -35t41.5 -65.5t-0.5 -102l-17 -86q-11 -57 -33 -91.5t-58 -53.5t-87 -25.5t-120 -6.5h-116l-53 -274h-178l121 628h-27q-41 0 -56 -23t-11 -73h-124q-5 57 6.5 98t37 67.5t64.5 39.5t89 13zM409 621l-43 -217h78q34 0 57.5 3.5t40 13
t26 27t15.5 45.5l9 46q9 45 -13 63.5t-80 18.5h-90z" />
    <glyph glyph-name="uni01A5" unicode="&#x1a5;" horiz-adv-x="617" 
d="M422 567q50 0 82.5 -17.5t50 -46.5t21 -66t-4.5 -77l-31 -158q-12 -57 -32.5 -97.5t-52 -66t-75 -37t-101.5 -11.5q-23 0 -57 4t-65 15l-43 -225h-173l150 769l10 48q17 89 66 131t148 42q33 0 60 -3t53 -9l-22 -116q-17 5 -33.5 6.5t-32.5 1.5q-29 0 -46 -13t-23 -44
l-14 -72q45 23 84.5 32.5t80.5 9.5zM183 137q23 -7 42 -9t40 -2q45 0 70.5 22t36.5 74l23 121q8 45 -4 65.5t-50 20.5q-25 0 -53 -9t-55 -25z" />
    <glyph glyph-name="uni01A6" unicode="&#x1a6;" horiz-adv-x="656" 
d="M135 750h174l-20 -106h130q60 0 105.5 -11t73.5 -36.5t37.5 -67.5t-2.5 -103l-13 -69q-13 -69 -44.5 -103.5t-85.5 -54.5l81 -305h-186l-66 281h-118l-33 -175h-178zM265 515l-39 -210h82q34 0 57.5 3.5t40 13t26 26.5t15.5 45l8 41q9 45 -12.5 63t-79.5 18h-98z" />
    <glyph glyph-name="uni01A7" unicode="&#x1a7;" 
d="M3 189q0 106 53.5 165t169.5 90l76 20q31 8 55.5 15t41 17.5t25 26t8.5 41.5q0 28 -27 41t-97 13q-46 0 -92 -6.5t-91 -17.5l29 143q18 5 42.5 9.5t53 7.5t60 4.5t62.5 1.5q66 0 112 -12t74.5 -35t41.5 -55.5t13 -72.5q0 -63 -17 -108t-46 -76.5t-67.5 -50.5t-81.5 -30
l-76 -19q-43 -11 -70 -21t-42.5 -22t-21.5 -27.5t-6 -37.5q0 -32 29.5 -44t90.5 -12q45 0 103.5 8.5t126.5 30.5l-28 -149q-63 -20 -130.5 -28.5t-127.5 -8.5q-69 0 -116 16t-76 43.5t-41.5 63.5t-12.5 76z" />
    <glyph glyph-name="uni01A8" unicode="&#x1a8;" horiz-adv-x="485" 
d="M-20 148q0 44 11.5 76t34 54.5t56.5 37.5t80 25l65 14q26 6 42.5 11t25.5 11.5t12 16t3 23.5q0 16 -17 22t-63 6q-17 0 -37.5 -1.5t-41.5 -4.5t-41.5 -7t-35.5 -8l24 122q25 7 70.5 14t99.5 7q102 0 148.5 -36t46.5 -99q0 -87 -43.5 -135.5t-139.5 -70.5l-65 -15
q-25 -6 -40.5 -10.5t-24 -10.5t-11.5 -14.5t-3 -20.5q0 -22 18.5 -29t63.5 -7q28 0 78 5.5t116 25.5l-25 -127q-49 -17 -105.5 -25t-109.5 -8q-57 0 -94.5 13.5t-59 36t-30 50.5t-8.5 58z" />
    <glyph glyph-name="uni01A9" unicode="&#x1a9;" horiz-adv-x="554" 
d="M594 750l-26 -137h-302l165 -241l-244 -234h296l-26 -138h-501l22 121l280 262l-180 250l23 117h493z" />
    <glyph glyph-name="uni01AA" unicode="&#x1aa;" horiz-adv-x="469" 
d="M216 450q-63 1 -99.5 39.5t-36.5 94.5q0 42 14 79t40 64.5t63 43t84 15.5q37 0 64 -10.5t44.5 -29t26 -43.5t8.5 -54q0 -8 -1 -16.5t-4 -22.5l-115 -591q-8 -39 4 -50t41 -11q14 0 33 3.5t38 12.5l-23 -121q-30 -14 -64.5 -20.5t-75.5 -6.5q-82 0 -113.5 45t-16.5 123z
M240 559q28 0 49.5 22t21.5 55q0 21 -13 32.5t-34 11.5q-28 0 -49.5 -22t-21.5 -55q0 -21 13 -32.5t34 -11.5z" />
    <glyph glyph-name="uni01AB" unicode="&#x1ab;" horiz-adv-x="439" 
d="M425 429h-142l-47 -240q-8 -39 -0.5 -53t40.5 -14q23 0 46.5 4t45.5 14l-6 -32l-17 -91l-4 -22q-8 -43 -23 -75t-40 -53t-61.5 -31t-87.5 -10q-30 0 -56 2.5t-52 8.5l23 120q17 -5 36.5 -7t36.5 -2q27 0 50.5 7.5t32.5 34.5h-5q-46 0 -76 12.5t-46 35t-19.5 54.5t4.5 71
l52 266h-84l24 124h84l22 115l180 34l-29 -149h142z" />
    <glyph glyph-name="uni01AC" unicode="&#x1ac;" horiz-adv-x="703" 
d="M292 594q-40 0 -59.5 -14t-25.5 -47q-6 -31 -3 -64h-147q-2 27 -0.5 50t6.5 48q10 52 30 87t51 56.5t73 30.5t96 9h433l-30 -156h-217l-115 -594h-177l115 594h-30z" />
    <glyph glyph-name="uni01AD" unicode="&#x1ad;" horiz-adv-x="439" 
d="M283 429l-47 -240q-8 -39 -0.5 -53t40.5 -14q23 0 46.5 4t45.5 14l-23 -123q-31 -16 -73 -21.5t-77 -5.5q-46 0 -76 12.5t-46 35t-19.5 54.5t4.5 71l52 266h-84l24 124h84l9 48q9 43 23.5 75.5t40 54t63.5 32.5t94 11q34 0 57 -3t49 -9l-22 -116q-17 5 -36 6.5t-30 1.5
q-24 0 -42 -10.5t-23 -38.5l-10 -52h142l-24 -124h-142z" />
    <glyph glyph-name="uni01AE" unicode="&#x1ae;" horiz-adv-x="655" 
d="M56 594l30 156h612l-30 -156h-217l-112 -583q-6 -32 6 -44.5t38 -12.5q12 0 31.5 1.5t37.5 6.5l-24 -125q-29 -6 -52.5 -8.5t-56.5 -2.5q-95 0 -133 50.5t-21 137.5l109 580h-218z" />
    <glyph glyph-name="Uhorn" unicode="&#x1af;" horiz-adv-x="884" 
d="M318 750l-81 -423q-10 -51 -8 -84.5t15 -53.5t38 -28t62 -8t64 8t46 28t32 53.5t23 84.5l81 423h179l-12 -62h18q25 0 40.5 8t23.5 23t9.5 35t-0.5 44h125q6 -114 -36.5 -172.5t-152.5 -58.5h-51l-58 -301q-15 -76 -43 -129t-70 -86.5t-99 -48.5t-130 -15
q-160 0 -235 79.5t-45 233.5l87 450h178z" />
    <glyph glyph-name="uhorn" unicode="&#x1b0;" horiz-adv-x="708" 
d="M84 553h172l-70 -357q-7 -35 -1.5 -52t35.5 -17q23 0 51 9t53 24l76 393h172l-13 -66h7q24 0 38 7.5t21.5 21t9 32.5t-0.5 41h113q5 -106 -35 -159.5t-139 -53.5h-35l-73 -376h-128l-4 47q-48 -32 -95.5 -45.5t-92.5 -13.5q-50 0 -80 16t-44.5 43t-16 62t6.5 72z" />
    <glyph glyph-name="uni01B1" unicode="&#x1b1;" horiz-adv-x="800" 
d="M359 145q44 0 76 13t54.5 36.5t36.5 57t22 74.5l15 82q7 33 10.5 60t0.5 50t-15 42t-37 36l30 154h320l-29 -152h-173q18 -13 33.5 -33t25 -49t11.5 -68t-8 -89l-13 -68q-16 -82 -48.5 -139.5t-79.5 -94t-108.5 -53.5t-134.5 -17q-82 0 -142.5 23.5t-97.5 68t-48.5 109
t4.5 146.5l13 65q9 43 24.5 76.5t35 58t42.5 40.5t47 24h-172l29 152h318l-30 -154q-31 -17 -50.5 -36t-31.5 -42t-19.5 -50t-14.5 -60l-15 -82q-8 -42 -7 -76t14 -57t40.5 -35.5t71.5 -12.5z" />
    <glyph glyph-name="uni01B2" unicode="&#x1b2;" horiz-adv-x="688" 
d="M504 567q8 17 13.5 30.5t5.5 22.5q0 10 -5.5 15t-22.5 5q-10 0 -18 -1t-16 -3l23 117q12 3 34 6t50 3q39 0 65.5 -7.5t43 -21t24 -32.5t7.5 -41q0 -34 -14 -66t-31 -65l-273 -529h-209l-106 750h188l45 -429q3 -32 4.5 -61.5t1.5 -67.5v-33q9 27 17 48.5t15.5 40.5
t15.5 36.5t18 36.5z" />
    <glyph glyph-name="uni01B3" unicode="&#x1b3;" horiz-adv-x="716" 
d="M393 295l-56 -295h-178l56 293l-151 457h181l53 -188q9 -33 16 -64.5t13 -75.5q22 44 41 75.5t41 64.5l70 106q15 22 30.5 40t35.5 30.5t45 19t58 6.5q69 0 100 -32.5t31 -81.5q0 -31 -4.5 -56t-17.5 -53h-104q5 16 7 27t2 22t-4.5 17t-16.5 6q-17 0 -27.5 -13t-28.5 -38
z" />
    <glyph glyph-name="uni01B4" unicode="&#x1b4;" horiz-adv-x="700" 
d="M515 655q12 23 26 44.5t35 38t50.5 26.5t71.5 10q20 0 42 -3.5t40 -11.5l-27 -139q-20 9 -46 9q-24 0 -39 -12.5t-32 -42.5l-427 -787h-181l115 214l-90 552h168l35 -289q3 -26 4.5 -52t3.5 -69q7 22 13 39t11.5 31t11.5 26l12 24z" />
    <glyph glyph-name="uni01B5" unicode="&#x1b5;" horiz-adv-x="653" 
d="M280 222l-18 -18t-17.5 -16.5t-20.5 -19t-27 -24.5h369l-27 -144h-575l26 137l183 194h-102l21 111h186l82 87q23 24 41.5 41.5t38.5 36.5h-343l27 143h549l-26 -136l-161 -172h86l-21 -111h-169z" />
    <glyph glyph-name="uni01B6" unicode="&#x1b6;" horiz-adv-x="519" 
d="M54 332h132l24 26q16 17 34 37t39 37h-229l24 121h433l-20 -105l-105 -116h55l-20 -100h-125l-35 -39q-17 -19 -35 -36t-39 -36h253l-22 -121h-458l20 105l115 127h-61z" />
    <glyph glyph-name="uni01B7" unicode="&#x1b7;" horiz-adv-x="686" 
d="M455 614h-350l26 136h551l-24 -128l-280 -264q81 -1 128.5 -25.5t70 -64.5t25 -90t-7.5 -101l-10 -48q-11 -57 -34 -103.5t-66.5 -79.5t-113 -51t-174.5 -18q-42 0 -83 4t-77.5 10t-66 14t-48.5 17l27 147q48 -19 113 -31t148 -12q47 0 82 6.5t60 22.5t41 43t24 69l7 32
q8 43 0.5 70t-27.5 42.5t-50.5 21t-69.5 5.5q-18 0 -32.5 -0.5t-28 -1.5t-27 -3t-29.5 -4l6 103z" />
    <glyph glyph-name="uni01B8" unicode="&#x1b8;" horiz-adv-x="686" 
d="M520 332l-34 -103q-17 2 -30 4t-25.5 3t-27 1.5t-32.5 0.5q-42 0 -75.5 -5t-58 -19.5t-41 -40.5t-24.5 -69l-7 -38q-8 -42 -2 -69t25 -43.5t51 -23t77 -6.5q83 0 153.5 13t125.5 32l-28 -147q-48 -17 -120 -31t-166 -14q-99 0 -161 24t-94.5 64.5t-39.5 93.5t4 110l10 51
q10 51 31 96t58.5 78.5t94 52.5t137.5 19l-180 256l24 128h551l-26 -136h-362z" />
    <glyph glyph-name="uni01B9" unicode="&#x1b9;" horiz-adv-x="534" 
d="M395 226l-53 -102q-11 2 -20 3.5t-18.5 2t-21 1t-27.5 0.5q-72 0 -107 -24t-44 -72l-6 -29q-6 -32 0.5 -52.5t24.5 -31.5t47 -15t67 -4q56 0 101 10t95 27l-25 -127q-42 -16 -93 -27.5t-116 -11.5q-85 0 -138.5 19t-82 52t-35 78t3.5 96l7 38q17 87 87.5 136t196.5 46
l-150 208l20 106h442l-24 -122h-274z" />
    <glyph glyph-name="uni01BA" unicode="&#x1ba;" horiz-adv-x="541" 
d="M114 307l117 90q17 13 36 22t36 18h-259l23 116h436l-19 -100l-181 -131q56 2 92 -7t56.5 -26.5t28.5 -42t8 -54.5q0 -74 -27 -117t-71.5 -67t-101.5 -35t-116 -20q-26 -4 -40 -8.5t-21.5 -10t-9 -10.5t-1.5 -11q0 -13 20.5 -20t73.5 -7q49 0 95.5 9.5t97.5 28.5
l-22 -114q-42 -16 -91.5 -26t-115.5 -10q-39 0 -75.5 6t-65 20.5t-45.5 38t-17 59.5q0 31 8.5 56t28.5 44.5t53.5 33.5t83.5 23q60 10 100 19t64 21.5t34.5 32t10.5 50.5q0 12 -5 21t-17 15t-33.5 9.5t-54.5 3.5q-18 0 -46 -2.5t-51 -7.5z" />
    <glyph glyph-name="uni01BB" unicode="&#x1bb;" horiz-adv-x="610" 
d="M-30 0l22 121l205 170h-127l22 111h240q23 19 38 33.5t24 27t14.5 26.5t9.5 34l3 14q4 19 2 33t-13 22t-33.5 12t-59.5 4q-41 0 -95.5 -8.5t-111.5 -26.5l28 143q22 8 49.5 15t57.5 12.5t60 8.5t57 3q75 0 123.5 -16.5t75 -45t33.5 -68t-2 -84.5l-7 -33
q-7 -32 -18.5 -56.5t-33.5 -49.5h43l-22 -111h-145l-183 -151h305l-26 -140h-535z" />
    <glyph glyph-name="uni01BC" unicode="&#x1bc;" horiz-adv-x="613" 
d="M70 745h545l-27 -139h-269l-41 -138q20 3 34.5 4t31.5 1q75 0 120.5 -19t69 -50.5t27.5 -72t-4 -82.5l-10 -54q-20 -106 -101.5 -155.5t-226.5 -49.5q-35 0 -69.5 3.5t-66 8.5t-57 12t-41.5 14l27 135q39 -16 94.5 -25t118.5 -9q66 0 102 23t44 67l6 33q10 52 -20.5 69.5
t-101.5 17.5q-51 0 -96 -5t-87 -13l87 285h-115z" />
    <glyph glyph-name="uni01BD" unicode="&#x1bd;" horiz-adv-x="495" 
d="M69 553h420l-23 -117h-216l-27 -88q19 3 31.5 4t27.5 1q54 0 87 -15.5t49.5 -40.5t19 -56t-3.5 -62l-7 -36q-15 -79 -77.5 -116t-183.5 -37q-26 0 -52.5 2.5t-50.5 6.5t-43.5 9t-31.5 10l25 125q29 -11 74 -18t93 -7q17 0 34 1t31 6t24 14t13 26l3 17q2 13 -0.5 22.5
t-12 15.5t-27 8.5t-45.5 2.5q-37 0 -70.5 -4t-64.5 -9l66 218h-85z" />
    <glyph glyph-name="uni01BE" unicode="&#x1be;" horiz-adv-x="483" 
d="M47 429l24 124h111l22 115l150 34l-29 -149h138l-24 -124h-128q3 -12 15 -23.5t37 -31.5q12 -10 25.5 -22t25 -28t19 -37.5t7.5 -49.5q0 -58 -14 -104.5t-46 -78.5t-86 -49.5t-133 -17.5q-26 0 -54.5 3t-55 8t-50 12t-38.5 15l24 125q35 -15 76.5 -24.5t83.5 -9.5
q37 0 62 6t40.5 19.5t22.5 35.5t7 54q0 24 -12 39.5t-39 36.5q-16 12 -30 24.5t-23.5 26.5t-14.5 31t-2 40h-111z" />
    <glyph glyph-name="uni01BF" unicode="&#x1bf;" horiz-adv-x="610" 
d="M413 567q87 0 130.5 -50.5t25.5 -141.5l-26 -139q-16 -83 -51.5 -131t-87 -74t-116 -36t-138.5 -16l-36 -195h-173l145 769h128l9 -43q53 33 100 45t90 12zM175 110q43 4 76.5 12.5t58 23.5t40 39t22.5 60l18 98q8 45 -4.5 65.5t-49.5 20.5q-25 0 -53 -9t-55 -25z" />
    <glyph glyph-name="uni01C0" unicode="&#x1c0;" horiz-adv-x="259" 
d="M79 -216h-139l193 990h139z" />
    <glyph glyph-name="uni01C1" unicode="&#x1c1;" horiz-adv-x="493" 
d="M79 -216h-139l193 990h139zM313 -216h-139l193 990h139z" />
    <glyph glyph-name="uni01C2" unicode="&#x1c2;" horiz-adv-x="355" 
d="M135 -216h-139l70 360h-101l21 106h100l18 89h-100l20 106h100l65 329h139l-65 -329h103l-20 -106h-103l-18 -89h103l-21 -106h-102z" />
    <glyph glyph-name="uni01C3" unicode="&#x1c3;" horiz-adv-x="280" 
d="M306 750l-120 -510h-140l77 510h183zM20 159h159l-30 -159h-159z" />
    <glyph glyph-name="uni01C4" unicode="&#x1c4;" horiz-adv-x="1337" 
d="M-10 0l145 750h282q79 0 137 -17t92.5 -53t44.5 -92.5t-6 -135.5l-35 -188q-14 -74 -38.5 -124.5t-64 -81.5t-97 -44.5t-136.5 -13.5h-324zM283 599l-87 -448h109q46 0 76.5 9.5t49.5 28.5t29.5 47.5t18.5 66.5l29 148q7 35 7.5 62.5t-10.5 46.5t-36.5 29t-70.5 10h-115z
M964 222l-18 -18t-17.5 -16.5t-20.5 -19t-27 -24.5h369l-27 -144h-575l26 137l370 392q23 24 41.5 41.5t38.5 36.5h-343l27 143h549l-26 -136zM965 960h104l44 -76l71 76h114l-141 -170h-117z" />
    <glyph glyph-name="uni01C5" unicode="&#x1c5;" horiz-adv-x="1212" 
d="M-10 0l145 750h282q79 0 137 -17t92.5 -53t44.5 -92.5t-6 -135.5l-35 -188q-14 -74 -38.5 -124.5t-64 -81.5t-97 -44.5t-136.5 -13.5h-324zM283 599l-87 -448h109q46 0 76.5 9.5t49.5 28.5t29.5 47.5t18.5 66.5l29 148q7 35 7.5 62.5t-10.5 46.5t-36.5 29t-70.5 10h-115z
M1184 448l-230 -255q-17 -19 -35 -36t-39 -36h253l-22 -121h-458l20 105l230 253q16 17 34 37t39 37h-229l24 121h433zM870 760h104l44 -76l71 76h114l-141 -170h-117z" />
    <glyph glyph-name="uni01C6" unicode="&#x1c6;" horiz-adv-x="1114" 
d="M165 -10q-48 0 -81 16.5t-51 44t-22.5 64.5t3.5 78l34 172q12 60 36 99t57.5 62t74 32t85.5 9q41 0 72 -6.5t54 -18.5l40 202l178 30l-150 -774h-137l-5 49q-36 -26 -80.5 -42.5t-107.5 -16.5zM400 406q-13 11 -34.5 17t-44.5 6q-21 0 -38 -4t-30.5 -14.5t-23 -29
t-15.5 -47.5l-23 -118q-8 -42 2 -65t48 -23q29 0 57.5 9t54.5 26zM1086 448l-230 -255q-17 -19 -35 -36t-39 -36h253l-22 -121h-458l20 105l230 253q16 17 34 37t39 37h-229l24 121h433zM772 760h104l44 -76l71 76h114l-141 -170h-117z" />
    <glyph glyph-name="uni01C7" unicode="&#x1c7;" horiz-adv-x="1007" 
d="M313 750l-115 -594h316l-30 -156h-494l145 750h178zM1024 750l-105 -542q-11 -57 -27 -98t-43 -68t-69 -39.5t-105 -12.5q-12 0 -33 1.5t-44.5 4.5t-45.5 7.5t-36 10.5l31 153q33 -13 61 -17t54 -4q18 0 31.5 4t23.5 13.5t16.5 25.5t11.5 41l102 520h177z" />
    <glyph glyph-name="uni01C8" unicode="&#x1c8;" horiz-adv-x="886" 
d="M313 750l-115 -594h316l-30 -156h-494l145 750h178zM856 553l-115 -591q-11 -59 -30.5 -95t-47.5 -56t-64 -27t-81 -7q-40 0 -72 4t-60 11l28 138q23 -5 43.5 -6.5t38.5 -1.5t31 2.5t22 10.5t15.5 22.5t11.5 39.5l108 556h172zM870 625h-172l32 163h172z" />
    <glyph glyph-name="uni01C9" unicode="&#x1c9;" horiz-adv-x="596" 
d="M-16 0l145 744l178 30l-150 -774h-173zM566 553l-115 -591q-11 -59 -30.5 -95t-47.5 -56t-64 -27t-81 -7q-40 0 -72 4t-60 11l28 138q23 -5 43.5 -6.5t38.5 -1.5t31 2.5t22 10.5t15.5 22.5t11.5 39.5l108 556h172zM580 625h-172l32 163h172z" />
    <glyph glyph-name="uni01CA" unicode="&#x1ca;" horiz-adv-x="1172" 
d="M593 0h-178l-142 400q-11 29 -16 55.5t-9 54.5l-95 -510h-163l142 750h177l141 -397q9 -26 14.5 -49.5t10.5 -52.5l95 499h163zM1189 750l-105 -542q-11 -57 -27 -98t-43 -68t-69 -39.5t-105 -12.5q-12 0 -33 1.5t-44.5 4.5t-45.5 7.5t-36 10.5l31 153q33 -13 61 -17
t54 -4q18 0 31.5 4t23.5 13.5t16.5 25.5t11.5 41l102 520h177z" />
    <glyph glyph-name="uni01CB" unicode="&#x1cb;" horiz-adv-x="1051" 
d="M593 0h-178l-142 400q-11 29 -16 55.5t-9 54.5l-95 -510h-163l142 750h177l141 -397q9 -26 14.5 -49.5t10.5 -52.5l95 499h163zM1021 553l-115 -591q-11 -59 -30.5 -95t-47.5 -56t-64 -27t-81 -7q-40 0 -72 4t-60 11l28 138q23 -5 43.5 -6.5t38.5 -1.5t31 2.5t22 10.5
t15.5 22.5t11.5 39.5l108 556h172zM1035 625h-172l32 163h172z" />
    <glyph glyph-name="uni01CC" unicode="&#x1cc;" horiz-adv-x="907" 
d="M475 0h-173l68 357q7 35 2 51t-37 16q-23 0 -51.5 -8t-51.5 -24l-76 -392h-172l107 553h128l3 -47q47 31 100.5 46t94.5 15q47 0 76 -16t43 -43t16 -61.5t-5 -71.5zM877 553l-115 -591q-11 -59 -30.5 -95t-47.5 -56t-64 -27t-81 -7q-40 0 -72 4t-60 11l28 138
q23 -5 43.5 -6.5t38.5 -1.5t31 2.5t22 10.5t15.5 22.5t11.5 39.5l108 556h172zM891 625h-172l32 163h172z" />
    <glyph glyph-name="uni01CD" unicode="&#x1cd;" horiz-adv-x="726" 
d="M538 750l111 -750h-187l-20 162h-236l-82 -162h-187l394 750h207zM274 310h155l-15 162q-2 17 -3 31.5t-2 29.5t-1 31.5t1 36.5q-6 -20 -12.5 -36t-13 -31t-14 -29.5t-15.5 -32.5zM311 960h104l44 -76l71 76h114l-141 -170h-117z" />
    <glyph glyph-name="uni01CE" unicode="&#x1ce;" horiz-adv-x="568" 
d="M446 0h-128l-6 50q-35 -25 -80.5 -42.5t-101.5 -17.5q-37 0 -66 10t-47 30.5t-24 51.5t2 73l7 38q9 47 28 77t51 46.5t77.5 22.5t107.5 6h80l6 30q4 21 3.5 35t-8 22t-23 11t-40.5 3q-14 0 -35 -2t-45 -6.5t-49.5 -10.5t-49.5 -15l24 122q44 16 98.5 24.5t96.5 8.5
q66 0 107.5 -15.5t63 -43t25.5 -66.5t-5 -87zM326 240h-64q-18 0 -34 -0.5t-28 -5.5t-21 -15.5t-13 -31.5l-4 -23q-12 -54 41 -54q23 0 52.5 8t51.5 25zM197 760h104l44 -76l71 76h114l-141 -170h-117z" />
    <glyph glyph-name="uni01CF" unicode="&#x1cf;" horiz-adv-x="303" 
d="M168 0h-178l145 750h178zM99 960h104l44 -76l71 76h114l-141 -170h-117z" />
    <glyph glyph-name="uni01D0" unicode="&#x1d0;" horiz-adv-x="294" 
d="M157 0h-173l107 553h173zM47 760h104l44 -76l71 76h114l-141 -170h-117z" />
    <glyph glyph-name="uni01D1" unicode="&#x1d1;" horiz-adv-x="742" 
d="M685 291q-32 -162 -127.5 -233t-256.5 -71q-78 0 -136 23t-93 67.5t-45.5 108.5t5.5 145l25 128q16 81 49 138.5t82 94t112.5 54t139.5 17.5q79 0 137.5 -23.5t93 -68t45 -108t-5.5 -144.5zM530 423q20 97 -8 140t-106 43q-79 0 -124.5 -43t-63.5 -140l-18 -96
q-19 -97 9 -140t107 -43q78 0 122.5 43t63.5 140zM317 960h104l44 -76l71 76h114l-141 -170h-117z" />
    <glyph glyph-name="uni01D2" unicode="&#x1d2;" horiz-adv-x="600" 
d="M226 -13q-130 0 -183.5 71t-28.5 197l16 80q24 120 99 176t202 56q67 0 113.5 -19.5t73 -55.5t34 -86t-4.5 -110l-16 -80q-12 -63 -37 -106.5t-62.5 -70.5t-88.5 -39.5t-117 -12.5zM311 432q-44 0 -71 -24t-41 -93l-13 -66q-13 -69 3.5 -98t60.5 -29t71.5 24.5t40.5 93.5
l13 66q14 69 -3 97.5t-61 28.5zM208 760h104l44 -76l71 76h114l-141 -170h-117z" />
    <glyph glyph-name="uni01D3" unicode="&#x1d3;" horiz-adv-x="745" 
d="M318 750l-81 -423q-10 -51 -8 -84.5t15 -53.5t38 -28t62 -8t64 8t46 28t32 53.5t23 84.5l81 423h179l-94 -484q-15 -76 -42.5 -129t-68.5 -86.5t-97 -48.5t-129 -15q-80 0 -140 20t-97.5 59.5t-50 98t2.5 135.5l87 450h178zM329 960h104l44 -76l71 76h114l-141 -170h-117
z" />
    <glyph glyph-name="uni01D4" unicode="&#x1d4;" horiz-adv-x="602" 
d="M84 553h172l-70 -357q-7 -35 -1.5 -52t35.5 -17q23 0 51 9t53 24l76 393h172l-107 -553h-128l-4 47q-48 -32 -95.5 -45.5t-92.5 -13.5q-50 0 -80 16t-44.5 43t-16 62t6.5 72zM206 760h104l44 -76l71 76h114l-141 -170h-117z" />
    <glyph glyph-name="uni01D5" unicode="&#x1d5;" horiz-adv-x="745" 
d="M318 750l-81 -423q-10 -51 -8 -84.5t15 -53.5t38 -28t62 -8t64 8t46 28t32 53.5t23 84.5l81 423h179l-94 -484q-15 -76 -42.5 -129t-68.5 -86.5t-97 -48.5t-129 -15q-80 0 -140 20t-97.5 59.5t-50 98t2.5 135.5l87 450h178zM331 906h112l-24 -126h-112zM521 906h112
l-24 -126h-112zM362 1050h296l-21 -106h-296z" />
    <glyph glyph-name="uni01D6" unicode="&#x1d6;" horiz-adv-x="602" 
d="M84 553h172l-70 -357q-7 -35 -1.5 -52t35.5 -17q23 0 51 9t53 24l76 393h172l-107 -553h-128l-4 47q-48 -32 -95.5 -45.5t-92.5 -13.5q-50 0 -80 16t-44.5 43t-16 62t6.5 72zM202 711h112l-24 -126h-112zM392 711h112l-24 -126h-112zM231 847h296l-21 -106h-296z" />
    <glyph glyph-name="uni01D7" unicode="&#x1d7;" horiz-adv-x="745" 
d="M318 750l-81 -423q-10 -51 -8 -84.5t15 -53.5t38 -28t62 -8t64 8t46 28t32 53.5t23 84.5l81 423h179l-94 -484q-15 -76 -42.5 -129t-68.5 -86.5t-97 -48.5t-129 -15q-80 0 -140 20t-97.5 59.5t-50 98t2.5 135.5l87 450h178zM515 1072h178l-142 -147h-152zM331 906h112
l-24 -126h-112zM521 906h112l-24 -126h-112z" />
    <glyph glyph-name="uni01D8" unicode="&#x1d8;" horiz-adv-x="602" 
d="M84 553h172l-70 -357q-7 -35 -1.5 -52t35.5 -17q23 0 51 9t53 24l76 393h172l-107 -553h-128l-4 47q-48 -32 -95.5 -45.5t-92.5 -13.5q-50 0 -80 16t-44.5 43t-16 62t6.5 72zM394 884h178l-142 -147h-152zM202 711h112l-24 -126h-112zM392 711h112l-24 -126h-112z" />
    <glyph glyph-name="uni01D9" unicode="&#x1d9;" horiz-adv-x="745" 
d="M318 750l-81 -423q-10 -51 -8 -84.5t15 -53.5t38 -28t62 -8t64 8t46 28t32 53.5t23 84.5l81 423h179l-94 -484q-15 -76 -42.5 -129t-68.5 -86.5t-97 -48.5t-129 -15q-80 0 -140 20t-97.5 59.5t-50 98t2.5 135.5l87 450h178zM353 1095h104l44 -76l71 76h114l-141 -170
h-117zM331 906h112l-24 -126h-112zM521 906h112l-24 -126h-112z" />
    <glyph glyph-name="uni01DA" unicode="&#x1da;" horiz-adv-x="602" 
d="M84 553h172l-70 -357q-7 -35 -1.5 -52t35.5 -17q23 0 51 9t53 24l76 393h172l-107 -553h-128l-4 47q-48 -32 -95.5 -45.5t-92.5 -13.5q-50 0 -80 16t-44.5 43t-16 62t6.5 72zM224 907h104l44 -76l71 76h114l-141 -170h-117zM202 711h112l-24 -126h-112zM392 711h112
l-24 -126h-112z" />
    <glyph glyph-name="uni01DB" unicode="&#x1db;" horiz-adv-x="745" 
d="M318 750l-81 -423q-10 -51 -8 -84.5t15 -53.5t38 -28t62 -8t64 8t46 28t32 53.5t23 84.5l81 423h179l-94 -484q-15 -76 -42.5 -129t-68.5 -86.5t-97 -48.5t-129 -15q-80 0 -140 20t-97.5 59.5t-50 98t2.5 135.5l87 450h178zM568 925h-141l-96 147h167zM331 906h112
l-24 -126h-112zM521 906h112l-24 -126h-112z" />
    <glyph glyph-name="uni01DC" unicode="&#x1dc;" horiz-adv-x="602" 
d="M84 553h172l-70 -357q-7 -35 -1.5 -52t35.5 -17q23 0 51 9t53 24l76 393h172l-107 -553h-128l-4 47q-48 -32 -95.5 -45.5t-92.5 -13.5q-50 0 -80 16t-44.5 43t-16 62t6.5 72zM435 737h-141l-96 147h167zM202 711h112l-24 -126h-112zM392 711h112l-24 -126h-112z" />
    <glyph glyph-name="uni01DD" unicode="&#x1dd;" horiz-adv-x="578" 
d="M27 337h338l2 11q10 58 -19.5 77t-96.5 19q-32 0 -77.5 -6t-86.5 -20l23 118q17 7 39 13t46 10t49 6t47 2q142 0 201 -66.5t33 -199.5l-14 -70q-14 -69 -41 -115.5t-64.5 -74.5t-83.5 -40t-97 -12q-56 0 -102 15t-75 48.5t-39 87t5 130.5zM168 233l-4 -21q-9 -46 7.5 -72
t63.5 -26q44 0 70.5 26t35.5 74l4 19h-177z" />
    <glyph glyph-name="uni01DE" unicode="&#x1de;" horiz-adv-x="726" 
d="M538 750l111 -750h-187l-20 162h-236l-82 -162h-187l394 750h207zM274 310h155l-15 162q-2 17 -3 31.5t-2 29.5t-1 31.5t1 36.5q-6 -20 -12.5 -36t-13 -31t-14 -29.5t-15.5 -32.5zM310 906h112l-24 -126h-112zM500 906h112l-24 -126h-112zM341 1050h296l-21 -106h-296z
" />
    <glyph glyph-name="uni01DF" unicode="&#x1df;" horiz-adv-x="568" 
d="M446 0h-128l-6 50q-35 -25 -80.5 -42.5t-101.5 -17.5q-37 0 -66 10t-47 30.5t-24 51.5t2 73l7 38q9 47 28 77t51 46.5t77.5 22.5t107.5 6h80l6 30q4 21 3.5 35t-8 22t-23 11t-40.5 3q-14 0 -35 -2t-45 -6.5t-49.5 -10.5t-49.5 -15l24 122q44 16 98.5 24.5t96.5 8.5
q66 0 107.5 -15.5t63 -43t25.5 -66.5t-5 -87zM326 240h-64q-18 0 -34 -0.5t-28 -5.5t-21 -15.5t-13 -31.5l-4 -23q-12 -54 41 -54q23 0 52.5 8t51.5 25zM211 711h112l-24 -126h-112zM401 711h112l-24 -126h-112zM240 847h296l-21 -106h-296z" />
    <glyph glyph-name="uni01E0" unicode="&#x1e0;" horiz-adv-x="726" 
d="M538 750l111 -750h-187l-20 162h-236l-82 -162h-187l394 750h207zM274 310h155l-15 162q-2 17 -3 31.5t-2 29.5t-1 31.5t1 36.5q-6 -20 -12.5 -36t-13 -31t-14 -29.5t-15.5 -32.5zM404 912h114l-24 -126h-114zM341 1050h296l-21 -106h-296z" />
    <glyph glyph-name="uni01E1" unicode="&#x1e1;" horiz-adv-x="568" 
d="M446 0h-128l-6 50q-35 -25 -80.5 -42.5t-101.5 -17.5q-37 0 -66 10t-47 30.5t-24 51.5t2 73l7 38q9 47 28 77t51 46.5t77.5 22.5t107.5 6h80l6 30q4 21 3.5 35t-8 22t-23 11t-40.5 3q-14 0 -35 -2t-45 -6.5t-49.5 -10.5t-49.5 -15l24 122q44 16 98.5 24.5t96.5 8.5
q66 0 107.5 -15.5t63 -43t25.5 -66.5t-5 -87zM326 240h-64q-18 0 -34 -0.5t-28 -5.5t-21 -15.5t-13 -31.5l-4 -23q-12 -54 41 -54q23 0 52.5 8t51.5 25zM305 717h114l-24 -126h-114zM240 847h296l-21 -106h-296z" />
    <glyph glyph-name="uni01E2" unicode="&#x1e2;" horiz-adv-x="1045" 
d="M1076 750l-27 -143h-322l-30 -154h290l-28 -142h-290l-33 -168h337l-27 -143h-510l31 162h-217l-123 -162h-197l583 750h563zM552 935h296l-21 -106h-296zM475 472l-119 -162h140l53 278q-17 -31 -34.5 -59t-39.5 -57z" />
    <glyph glyph-name="uni01E3" unicode="&#x1e3;" horiz-adv-x="885" 
d="M824 233h-338l-2 -13q-9 -59 19 -83.5t94 -24.5q33 0 78 6t86 20l-23 -118q-33 -15 -79.5 -23t-91.5 -8q-69 0 -110 19t-68 56q-48 -32 -109.5 -53t-138.5 -21q-37 0 -67.5 10t-51 31t-28 52t0.5 73l7 38q9 45 30.5 73t56 43.5t82.5 21t110 5.5h65l7 38q4 21 3.5 35
t-8 22t-23 11t-40.5 3q-14 0 -35 -2t-45 -6.5t-49.5 -10.5t-49.5 -15l24 122q45 14 97.5 23.5t100.5 9.5q61 0 97.5 -14t51.5 -46q32 31 76 45.5t93 14.5q52 0 93.5 -16.5t67 -48.5t34.5 -80.5t-3 -112.5zM684 337l3 17q15 88 -71 88q-44 0 -72.5 -23.5t-35.5 -68.5l-2 -13
h178zM325 232h-66q-37 0 -62 -8.5t-31 -44.5l-3 -17q-5 -28 4 -40t37 -12q23 0 52.5 8t51.5 25zM369 735h296l-21 -106h-296z" />
    <glyph glyph-name="uni01E4" unicode="&#x1e4;" horiz-adv-x="686" 
d="M631 590q-35 8 -82.5 13t-94.5 5q-54 0 -90.5 -9t-60.5 -28.5t-38 -50.5t-23 -74l-27 -136q-8 -44 -7.5 -75.5t15.5 -52.5t47 -31t85 -10q22 0 40 1.5t35 6.5l5 29h-114l22 107h113l8 38h-114l25 127h280l-32 -165h62l-22 -107h-61l-30 -153q-57 -20 -123.5 -27.5
t-131.5 -7.5q-91 0 -152.5 20t-95 61.5t-41 105.5t10.5 153l23 118q18 94 51.5 154.5t82.5 95.5t114.5 48.5t148.5 13.5q27 0 55 -2t55 -5t50.5 -8t40.5 -11z" />
    <glyph glyph-name="uni01E5" unicode="&#x1e5;" horiz-adv-x="623" 
d="M20 11h308l10 53q-65 -36 -148 -36q-55 0 -90.5 16.5t-54 45t-22.5 65.5t4 78l25 130q12 60 35 99.5t55.5 62.5t72 32.5t84.5 9.5q38 0 80.5 -9t74.5 -36l19 31h133l-105 -542h64l-17 -90h-70q-14 -38 -36.5 -65.5t-56 -46.5t-81 -28t-112.5 -9q-42 0 -83.5 5t-67.5 12
l21 109q29 -8 63 -12t69 -4q43 0 69 9t40 30h-300zM403 402q-13 14 -35 21t-45 7q-42 0 -67.5 -19.5t-36.5 -71.5l-16 -81q-9 -45 3.5 -68.5t54.5 -23.5q56 0 101 21z" />
    <glyph glyph-name="Gcaron" unicode="&#x1e6;" horiz-adv-x="686" 
d="M631 590q-35 8 -82.5 13t-94.5 5q-54 0 -90.5 -9t-60.5 -28.5t-38 -50.5t-23 -74l-27 -136q-8 -44 -7.5 -75.5t15.5 -52.5t47 -31t85 -10q22 0 40 1.5t35 6.5l28 147h-114l27 134h280l-79 -405q-57 -20 -123.5 -27.5t-131.5 -7.5q-91 0 -152.5 20t-95 61.5t-41 105.5
t10.5 153l23 118q18 94 51.5 154.5t82.5 95.5t114.5 48.5t148.5 13.5q27 0 55 -2t55 -5t50.5 -8t40.5 -11zM317 960h104l44 -76l71 76h114l-141 -170h-117z" />
    <glyph glyph-name="gcaron" unicode="&#x1e7;" horiz-adv-x="612" 
d="M172 -6q-55 0 -90.5 16.5t-54 45t-22.5 65.5t4 78l32 164q12 60 35 99.5t55.5 62.5t72 32.5t84.5 9.5q38 0 80.5 -9t74.5 -36l19 31h133l-108 -552q-11 -57 -30.5 -99t-54 -70t-88.5 -41.5t-133 -13.5q-42 0 -83.5 5t-67.5 12l24 124q29 -8 63 -12t69 -4q61 0 88.5 18
t36.5 65l9 45q-65 -36 -148 -36zM392 402q-13 14 -35 21t-45 7q-42 0 -67.5 -19.5t-36.5 -71.5l-23 -115q-9 -45 3.5 -68.5t54.5 -23.5q56 0 101 21zM224 760h104l44 -76l71 76h114l-141 -170h-117z" />
    <glyph glyph-name="uni01E8" unicode="&#x1e8;" horiz-adv-x="722" 
d="M462 378l181 -378h-204l-133 308h-79l-59 -308h-178l145 750h178l-58 -299h64l227 299h216zM290 960h104l44 -76l71 76h114l-141 -170h-117z" />
    <glyph glyph-name="uni01E9" unicode="&#x1e9;" horiz-adv-x="598" 
d="M307 774l-80 -409h45l150 188h214l-222 -259l112 -294h-195l-76 225h-55l-43 -225h-173l145 744zM283 960h104l44 -76l71 76h114l-141 -170h-117z" />
    <glyph glyph-name="uni01EA" unicode="&#x1ea;" horiz-adv-x="742" 
d="M324 -232q-38 0 -64 8.5t-41 22.5t-20 33t-1 40l2 11q5 32 31.5 59.5t60.5 44.5q-76 1 -132 25t-90 68t-44 107.5t6 143.5l25 128q16 81 49 138.5t82 94t112.5 54t139.5 17.5q79 0 137.5 -23.5t93 -68t45 -108t-5.5 -144.5l-25 -128q-25 -127 -89 -197.5t-168 -93.5h1
q-48 -26 -74.5 -52t-31.5 -49l-2 -10q-4 -20 9.5 -24.5t32.5 -4.5q15 0 32.5 2t28.5 5l-17 -88q-14 -4 -35 -7.5t-48 -3.5zM530 423q20 97 -8 140t-106 43q-79 0 -124.5 -43t-63.5 -140l-18 -96q-19 -97 9 -140t107 -43q78 0 122.5 43t63.5 140z" />
    <glyph glyph-name="uni01EB" unicode="&#x1eb;" horiz-adv-x="600" 
d="M240 -232q-38 0 -64 8.5t-41 22.5t-20 33t-1 40l2 11q5 32 31.5 60t60.5 45q-120 5 -169 75.5t-25 191.5l16 80q24 120 99 176t202 56q67 0 113.5 -19.5t73 -55.5t34 -86t-4.5 -110l-16 -80q-19 -94 -64.5 -145.5t-121.5 -70.5q-48 -26 -74.5 -52t-31.5 -49l-2 -10
q-4 -20 9.5 -24.5t32.5 -4.5q15 0 32.5 2t28.5 5l-17 -88q-14 -4 -35 -7.5t-48 -3.5zM311 432q-44 0 -71 -24t-41 -93l-13 -66q-13 -69 3.5 -98t60.5 -29t71.5 24.5t40.5 93.5l13 66q14 69 -3 97.5t-61 28.5z" />
    <glyph glyph-name="uni01EC" unicode="&#x1ec;" horiz-adv-x="742" 
d="M324 -232q-38 0 -64 8.5t-41 22.5t-20 33t-1 40l2 11q5 32 31.5 59.5t60.5 44.5q-76 1 -132 25t-90 68t-44 107.5t6 143.5l25 128q16 81 49 138.5t82 94t112.5 54t139.5 17.5q79 0 137.5 -23.5t93 -68t45 -108t-5.5 -144.5l-25 -128q-25 -127 -89 -197.5t-168 -93.5h1
q-48 -26 -74.5 -52t-31.5 -49l-2 -10q-4 -20 9.5 -24.5t32.5 -4.5q15 0 32.5 2t28.5 5l-17 -88q-14 -4 -35 -7.5t-48 -3.5zM530 423q20 97 -8 140t-106 43q-79 0 -124.5 -43t-63.5 -140l-18 -96q-19 -97 9 -140t107 -43q78 0 122.5 43t63.5 140zM332 935h296l-21 -106h-296z
" />
    <glyph glyph-name="uni01ED" unicode="&#x1ed;" horiz-adv-x="600" 
d="M240 -232q-38 0 -64 8.5t-41 22.5t-20 33t-1 40l2 11q5 32 31.5 60t60.5 45q-120 5 -169 75.5t-25 191.5l16 80q24 120 99 176t202 56q67 0 113.5 -19.5t73 -55.5t34 -86t-4.5 -110l-16 -80q-19 -94 -64.5 -145.5t-121.5 -70.5q-48 -26 -74.5 -52t-31.5 -49l-2 -10
q-4 -20 9.5 -24.5t32.5 -4.5q15 0 32.5 2t28.5 5l-17 -88q-14 -4 -35 -7.5t-48 -3.5zM311 432q-44 0 -71 -24t-41 -93l-13 -66q-13 -69 3.5 -98t60.5 -29t71.5 24.5t40.5 93.5l13 66q14 69 -3 97.5t-61 28.5zM219 735h296l-21 -106h-296z" />
    <glyph glyph-name="uni01EE" unicode="&#x1ee;" horiz-adv-x="686" 
d="M455 614h-350l26 136h551l-24 -128l-280 -264q81 -1 128.5 -25.5t70 -64.5t25 -90t-7.5 -101l-10 -48q-11 -57 -34 -103.5t-66.5 -79.5t-113 -51t-174.5 -18q-42 0 -83 4t-77.5 10t-66 14t-48.5 17l27 147q48 -19 113 -31t148 -12q47 0 82 6.5t60 22.5t41 43t24 69l7 32
q8 43 0.5 70t-27.5 42.5t-50.5 21t-69.5 5.5q-18 0 -32.5 -0.5t-28 -1.5t-27 -3t-29.5 -4l6 103zM289 960h104l44 -76l71 76h114l-141 -170h-117z" />
    <glyph glyph-name="uni01EF" unicode="&#x1ef;" horiz-adv-x="542" 
d="M314 432h-266l24 121h440l-20 -105l-224 -211q61 0 102 -17.5t63.5 -46.5t28.5 -67t-3 -79l-8 -38q-9 -45 -29.5 -84t-57.5 -67.5t-94 -44.5t-140 -16q-67 0 -123 11t-87 25l24 124q38 -16 85 -26.5t113 -10.5q75 0 113.5 24t51.5 86l5 24q7 33 1.5 53.5t-21.5 32t-41 16
t-57 4.5q-23 0 -42 -2t-46 -6l-12 88zM170 760h104l44 -76l71 76h114l-141 -170h-117z" />
    <glyph glyph-name="uni01F0" unicode="&#x1f0;" horiz-adv-x="314" 
d="M285 553l-114 -585q-11 -59 -30.5 -96t-47.5 -58t-64.5 -29t-81.5 -8q-40 0 -72 4t-60 11l28 138q23 -5 43.5 -6.5t38.5 -1.5t31 2.5t22 10.5t15.5 22.5t11.5 39.5l108 556h172zM71 760h104l44 -76l71 76h114l-141 -170h-117z" />
    <glyph glyph-name="uni01F1" unicode="&#x1f1;" horiz-adv-x="1337" 
d="M-10 0l145 750h282q79 0 137 -17t92.5 -53t44.5 -92.5t-6 -135.5l-35 -188q-14 -74 -38.5 -124.5t-64 -81.5t-97 -44.5t-136.5 -13.5h-324zM283 599l-87 -448h109q46 0 76.5 9.5t49.5 28.5t29.5 47.5t18.5 66.5l29 148q7 35 7.5 62.5t-10.5 46.5t-36.5 29t-70.5 10h-115z
M964 222l-18 -18t-17.5 -16.5t-20.5 -19t-27 -24.5h369l-27 -144h-575l26 137l370 392q23 24 41.5 41.5t38.5 36.5h-343l27 143h549l-26 -136z" />
    <glyph glyph-name="uni01F2" unicode="&#x1f2;" horiz-adv-x="1212" 
d="M-10 0l145 750h282q79 0 137 -17t92.5 -53t44.5 -92.5t-6 -135.5l-35 -188q-14 -74 -38.5 -124.5t-64 -81.5t-97 -44.5t-136.5 -13.5h-324zM283 599l-87 -448h109q46 0 76.5 9.5t49.5 28.5t29.5 47.5t18.5 66.5l29 148q7 35 7.5 62.5t-10.5 46.5t-36.5 29t-70.5 10h-115z
M1184 448l-230 -255q-17 -19 -35 -36t-39 -36h253l-22 -121h-458l20 105l230 253q16 17 34 37t39 37h-229l24 121h433z" />
    <glyph glyph-name="uni01F3" unicode="&#x1f3;" horiz-adv-x="1133" 
d="M165 -10q-48 0 -81 16.5t-51 44t-22.5 64.5t3.5 78l34 172q12 60 36 99t57.5 62t74 32t85.5 9q41 0 72 -6.5t54 -18.5l40 202l178 30l-150 -774h-137l-5 49q-36 -26 -80.5 -42.5t-107.5 -16.5zM400 406q-13 11 -34.5 17t-44.5 6q-21 0 -38 -4t-30.5 -14.5t-23 -29
t-15.5 -47.5l-23 -118q-8 -42 2 -65t48 -23q29 0 57.5 9t54.5 26zM1105 448l-230 -255q-17 -19 -35 -36t-39 -36h253l-22 -121h-458l20 105l230 253q16 17 34 37t39 37h-229l24 121h433z" />
    <glyph glyph-name="uni01F4" unicode="&#x1f4;" horiz-adv-x="686" 
d="M631 590q-35 8 -82.5 13t-94.5 5q-54 0 -90.5 -9t-60.5 -28.5t-38 -50.5t-23 -74l-27 -136q-8 -44 -7.5 -75.5t15.5 -52.5t47 -31t85 -10q22 0 40 1.5t35 6.5l28 147h-114l27 134h280l-79 -405q-57 -20 -123.5 -27.5t-131.5 -7.5q-91 0 -152.5 20t-95 61.5t-41 105.5
t10.5 153l23 118q18 94 51.5 154.5t82.5 95.5t114.5 48.5t148.5 13.5q27 0 55 -2t55 -5t50.5 -8t40.5 -11zM485 948h178l-142 -147h-152z" />
    <glyph glyph-name="uni01F5" unicode="&#x1f5;" horiz-adv-x="617" 
d="M177 -6q-55 0 -90.5 16.5t-54 45t-22.5 65.5t4 78l32 164q12 60 35 99.5t55.5 62.5t72 32.5t84.5 9.5q38 0 80.5 -9t74.5 -36l19 31h133l-108 -552q-11 -57 -30.5 -99t-54 -70t-88.5 -41.5t-133 -13.5q-42 0 -83.5 5t-67.5 12l24 124q29 -8 63 -12t69 -4q61 0 88.5 18
t36.5 65l9 45q-65 -36 -148 -36zM397 402q-13 14 -35 21t-45 7q-42 0 -67.5 -19.5t-36.5 -71.5l-23 -115q-9 -45 3.5 -68.5t54.5 -23.5q56 0 101 21zM363 748h178l-142 -147h-152z" />
    <glyph glyph-name="uni01F6" unicode="&#x1f6;" horiz-adv-x="1054" 
d="M671 -12q-75 0 -121 18t-70.5 47t-30 65.5t1.5 73.5l21 111h-247l-58 -303h-177l145 750h177l-56 -285h247l56 285h177l-107 -550q-13 -69 59 -69q75 0 88 69l69 353h177l-73 -374q-7 -37 -23.5 -71.5t-48 -61t-81.5 -42.5t-125 -16z" />
    <glyph glyph-name="uni01F7" unicode="&#x1f7;" horiz-adv-x="692" 
d="M134 750h173l-10 -52l104 40q25 10 57.5 17.5t65.5 7.5q55 0 87.5 -21.5t48.5 -56t17 -78t-8 -88.5l-26 -140q-12 -66 -40.5 -121t-82.5 -100.5t-139.5 -82t-212.5 -65.5l-43 -226h-174zM270 551l-72 -382q72 19 119.5 40.5t77 49.5t45 63.5t24.5 81.5l21 104
q11 57 1 77.5t-45 20.5q-20 0 -35 -5t-31 -11z" />
    <glyph glyph-name="uni01F8" unicode="&#x1f8;" horiz-adv-x="723" 
d="M593 0h-178l-142 400q-11 29 -16 55.5t-9 54.5l-95 -510h-163l142 750h177l141 -397q9 -26 14.5 -49.5t10.5 -52.5l95 499h163zM541 801h-141l-96 147h167z" />
    <glyph glyph-name="uni01F9" unicode="&#x1f9;" horiz-adv-x="601" 
d="M475 0h-173l68 357q7 35 2 51t-37 16q-23 0 -51.5 -8t-51.5 -24l-76 -392h-172l107 553h128l3 -47q47 31 100.5 46t94.5 15q47 0 76 -16t43 -43t16 -61.5t-5 -71.5zM426 601h-141l-96 147h167z" />
    <glyph glyph-name="Aringacute" unicode="&#x1fa;" horiz-adv-x="726" 
d="M538 750l111 -750h-187l-20 162h-236l-82 -162h-187l394 750h207zM274 310h155l-15 162q-2 17 -3 31.5t-2 29.5t-1 31.5t1 36.5q-6 -20 -12.5 -36t-13 -31t-14 -29.5t-15.5 -32.5zM447 839q20 0 35.5 15t15.5 39q0 15 -9 24t-24 9q-20 0 -35.5 -15t-15.5 -39q0 -15 9 -24
t24 -9zM478 994q42 0 67 -24.5t25 -65.5q0 -29 -11.5 -53.5t-30 -42t-43 -27.5t-51.5 -10q-42 0 -67 24.5t-25 65.5q0 29 11.5 53.5t30 42t43 27.5t51.5 10zM532 1159h178l-142 -147h-152z" />
    <glyph glyph-name="aringacute" unicode="&#x1fb;" horiz-adv-x="568" 
d="M446 0h-128l-6 50q-35 -25 -80.5 -42.5t-101.5 -17.5q-37 0 -66 10t-47 30.5t-24 51.5t2 73l7 38q9 47 28 77t51 46.5t77.5 22.5t107.5 6h80l6 30q4 21 3.5 35t-8 22t-23 11t-40.5 3q-14 0 -35 -2t-45 -6.5t-49.5 -10.5t-49.5 -15l24 122q44 16 98.5 24.5t96.5 8.5
q66 0 107.5 -15.5t63 -43t25.5 -66.5t-5 -87zM326 240h-64q-18 0 -34 -0.5t-28 -5.5t-21 -15.5t-13 -31.5l-4 -23q-12 -54 41 -54q23 0 52.5 8t51.5 25zM355 649q20 0 35.5 15t15.5 39q0 15 -9 24t-24 9q-20 0 -35.5 -15t-15.5 -39q0 -15 9 -24t24 -9zM386 804
q42 0 67 -24.5t25 -65.5q0 -29 -11.5 -53.5t-30 -42t-43 -27.5t-51.5 -10q-42 0 -67 24.5t-25 65.5q0 29 11.5 53.5t30 42t43 27.5t51.5 10zM427 964h178l-142 -147h-152z" />
    <glyph glyph-name="AEacute" unicode="&#x1fc;" horiz-adv-x="1045" 
d="M660 948h178l-142 -147h-152zM1076 750l-27 -143h-322l-30 -154h290l-28 -142h-290l-33 -168h337l-27 -143h-510l31 162h-217l-123 -162h-197l583 750h563zM475 472l-119 -162h140l53 278q-17 -31 -34.5 -59t-39.5 -57z" />
    <glyph glyph-name="aeacute" unicode="&#x1fd;" horiz-adv-x="885" 
d="M824 233h-338l-2 -13q-9 -59 19 -83.5t94 -24.5q33 0 78 6t86 20l-23 -118q-33 -15 -79.5 -23t-91.5 -8q-69 0 -110 19t-68 56q-48 -32 -109.5 -53t-138.5 -21q-37 0 -67.5 10t-51 31t-28 52t0.5 73l7 38q9 45 30.5 73t56 43.5t82.5 21t110 5.5h65l7 38q4 21 3.5 35
t-8 22t-23 11t-40.5 3q-14 0 -35 -2t-45 -6.5t-49.5 -10.5t-49.5 -15l24 122q45 14 97.5 23.5t100.5 9.5q61 0 97.5 -14t51.5 -46q32 31 76 45.5t93 14.5q52 0 93.5 -16.5t67 -48.5t34.5 -80.5t-3 -112.5zM684 337l3 17q15 88 -71 88q-44 0 -72.5 -23.5t-35.5 -68.5l-2 -13
h178zM325 232h-66q-37 0 -62 -8.5t-31 -44.5l-3 -17q-5 -28 4 -40t37 -12q23 0 52.5 8t51.5 25zM523 748h178l-142 -147h-152z" />
    <glyph glyph-name="Oslashacute" unicode="&#x1fe;" horiz-adv-x="735" 
d="M690 291q-32 -162 -130.5 -233t-259.5 -71q-49 0 -90 9.5t-74 26.5l-56 -66h-133l112 132q-63 89 -33 242l25 128q16 81 50 138.5t83.5 94t114 54t140.5 17.5q99 0 165 -36l55 65h133l-112 -131q31 -45 40.5 -105.5t-5.5 -136.5zM415 606q-79 0 -127 -43t-66 -140
l-18 -96q-9 -43 -7 -77l291 342q-30 14 -73 14zM535 423q7 42 6 75l-290 -341q27 -13 74 -13q78 0 125.5 43t66.5 140zM479 948h178l-142 -147h-152z" />
    <glyph glyph-name="oslashacute" unicode="&#x1ff;" horiz-adv-x="597" 
d="M227 -13q-69 0 -118 21l-44 -51h-117l91 104q-53 70 -29 194l16 80q24 120 101.5 176t204.5 56q75 0 127 -26l37 43h116l-87 -99q51 -72 28 -189l-16 -80q-25 -125 -102 -177t-208 -52zM371 748h178l-142 -147h-152zM312 432q-44 0 -73.5 -24t-43.5 -93l-13 -66l-5 -30
l178 203q-17 10 -43 10zM251 122q44 0 74 24.5t43 93.5l13 66l3 17l-170 -195q16 -6 37 -6z" />
    <glyph glyph-name="uni0200" unicode="&#x200;" horiz-adv-x="726" 
d="M538 750l111 -750h-187l-20 162h-236l-82 -162h-187l394 750h207zM274 310h155l-15 162q-2 17 -3 31.5t-2 29.5t-1 31.5t1 36.5q-6 -20 -12.5 -36t-13 -31t-14 -29.5t-15.5 -32.5zM407 801h-100l-41 147h121zM582 801h-102l-41 147h122z" />
    <glyph glyph-name="uni0201" unicode="&#x201;" horiz-adv-x="568" 
d="M446 0h-128l-6 50q-35 -25 -80.5 -42.5t-101.5 -17.5q-37 0 -66 10t-47 30.5t-24 51.5t2 73l7 38q9 47 28 77t51 46.5t77.5 22.5t107.5 6h80l6 30q4 21 3.5 35t-8 22t-23 11t-40.5 3q-14 0 -35 -2t-45 -6.5t-49.5 -10.5t-49.5 -15l24 122q44 16 98.5 24.5t96.5 8.5
q66 0 107.5 -15.5t63 -43t25.5 -66.5t-5 -87zM326 240h-64q-18 0 -34 -0.5t-28 -5.5t-21 -15.5t-13 -31.5l-4 -23q-12 -54 41 -54q23 0 52.5 8t51.5 25zM330 601h-100l-41 147h121zM505 601h-102l-41 147h122z" />
    <glyph glyph-name="uni0202" unicode="&#x202;" horiz-adv-x="726" 
d="M538 750l111 -750h-187l-20 162h-236l-82 -162h-187l394 750h207zM274 310h155l-15 162q-2 17 -3 31.5t-2 29.5t-1 31.5t1 36.5q-6 -20 -12.5 -36t-13 -31t-14 -29.5t-15.5 -32.5zM464 954q34 0 59 -12t40 -32t20 -48t0 -59h-86q7 61 -44 61q-52 0 -68 -61h-94
q7 33 20.5 60.5t35 47.5t50.5 31.5t67 11.5z" />
    <glyph glyph-name="uni0203" unicode="&#x203;" horiz-adv-x="568" 
d="M446 0h-128l-6 50q-35 -25 -80.5 -42.5t-101.5 -17.5q-37 0 -66 10t-47 30.5t-24 51.5t2 73l7 38q9 47 28 77t51 46.5t77.5 22.5t107.5 6h80l6 30q4 21 3.5 35t-8 22t-23 11t-40.5 3q-14 0 -35 -2t-45 -6.5t-49.5 -10.5t-49.5 -15l24 122q44 16 98.5 24.5t96.5 8.5
q66 0 107.5 -15.5t63 -43t25.5 -66.5t-5 -87zM326 240h-64q-18 0 -34 -0.5t-28 -5.5t-21 -15.5t-13 -31.5l-4 -23q-12 -54 41 -54q23 0 52.5 8t51.5 25zM370 754q34 0 59 -12t40 -32t20 -48t0 -59h-86q7 61 -44 61q-52 0 -68 -61h-94q7 33 20.5 60.5t35 47.5t50.5 31.5
t67 11.5z" />
    <glyph glyph-name="uni0204" unicode="&#x204;" 
d="M635 750l-27 -143h-322l-30 -154h290l-28 -142h-290l-33 -168h336l-27 -143h-514l145 750h500zM382 801h-100l-41 147h121zM557 801h-102l-41 147h122z" />
    <glyph glyph-name="uni0205" unicode="&#x205;" horiz-adv-x="574" 
d="M512 219h-338l-2 -11q-5 -29 0 -47.5t19.5 -29.5t39 -15t57.5 -4q32 0 77.5 6t86.5 20l-23 -118q-17 -8 -39 -13.5t-46 -9.5t-49 -6t-47 -2q-142 0 -201 66.5t-33 199.5l14 70q13 69 40.5 115.5t65 74.5t83.5 40t97 12q56 0 101.5 -15t75 -48.5t39.5 -87t-5 -130.5z
M371 323l4 21q9 46 -7.5 72t-63.5 26q-44 0 -70.5 -26t-35.5 -74l-4 -19h177zM301 601h-100l-41 147h121zM476 601h-102l-41 147h122z" />
    <glyph glyph-name="uni0206" unicode="&#x206;" 
d="M635 750l-27 -143h-322l-30 -154h290l-28 -142h-290l-33 -168h336l-27 -143h-514l145 750h500zM419 954q34 0 59 -12t40 -32t20 -48t0 -59h-86q7 61 -44 61q-52 0 -68 -61h-94q7 33 20.5 60.5t35 47.5t50.5 31.5t67 11.5z" />
    <glyph glyph-name="uni0207" unicode="&#x207;" horiz-adv-x="574" 
d="M512 219h-338l-2 -11q-5 -29 0 -47.5t19.5 -29.5t39 -15t57.5 -4q32 0 77.5 6t86.5 20l-23 -118q-17 -8 -39 -13.5t-46 -9.5t-49 -6t-47 -2q-142 0 -201 66.5t-33 199.5l14 70q13 69 40.5 115.5t65 74.5t83.5 40t97 12q56 0 101.5 -15t75 -48.5t39.5 -87t-5 -130.5z
M371 323l4 21q9 46 -7.5 72t-63.5 26q-44 0 -70.5 -26t-35.5 -74l-4 -19h177zM353 754q34 0 59 -12t40 -32t20 -48t0 -59h-86q7 61 -44 61q-52 0 -68 -61h-94q7 33 20.5 60.5t35 47.5t50.5 31.5t67 11.5z" />
    <glyph glyph-name="uni0208" unicode="&#x208;" horiz-adv-x="303" 
d="M168 0h-178l145 750h178zM201 801h-100l-41 147h121zM376 801h-102l-41 147h122z" />
    <glyph glyph-name="uni0209" unicode="&#x209;" horiz-adv-x="296" 
d="M159 0h-173l107 553h173zM142 601h-100l-41 147h121zM317 601h-102l-41 147h122z" />
    <glyph glyph-name="uni020A" unicode="&#x20a;" horiz-adv-x="303" 
d="M168 0h-178l145 750h178zM255 954q34 0 59 -12t40 -32t20 -48t0 -59h-86q7 61 -44 61q-52 0 -68 -61h-94q7 33 20.5 60.5t35 47.5t50.5 31.5t67 11.5z" />
    <glyph glyph-name="uni020B" unicode="&#x20b;" horiz-adv-x="294" 
d="M207 754q34 0 59 -12t40 -32t20 -48t0 -59h-86q7 61 -44 61q-52 0 -68 -61h-94q7 33 20.5 60.5t35 47.5t50.5 31.5t67 11.5zM157 0h-173l107 553h173z" />
    <glyph glyph-name="uni020C" unicode="&#x20c;" horiz-adv-x="742" 
d="M685 291q-32 -162 -127.5 -233t-256.5 -71q-78 0 -136 23t-93 67.5t-45.5 108.5t5.5 145l25 128q16 81 49 138.5t82 94t112.5 54t139.5 17.5q79 0 137.5 -23.5t93 -68t45 -108t-5.5 -144.5zM530 423q20 97 -8 140t-106 43q-79 0 -124.5 -43t-63.5 -140l-18 -96
q-19 -97 9 -140t107 -43q78 0 122.5 43t63.5 140zM406 801h-100l-41 147h121zM581 801h-102l-41 147h122z" />
    <glyph glyph-name="uni020D" unicode="&#x20d;" horiz-adv-x="600" 
d="M226 -13q-130 0 -183.5 71t-28.5 197l16 80q24 120 99 176t202 56q67 0 113.5 -19.5t73 -55.5t34 -86t-4.5 -110l-16 -80q-12 -63 -37 -106.5t-62.5 -70.5t-88.5 -39.5t-117 -12.5zM311 432q-44 0 -71 -24t-41 -93l-13 -66q-13 -69 3.5 -98t60.5 -29t71.5 24.5t40.5 93.5
l13 66q14 69 -3 97.5t-61 28.5zM304 601h-100l-41 147h121zM479 601h-102l-41 147h122z" />
    <glyph glyph-name="uni020E" unicode="&#x20e;" horiz-adv-x="742" 
d="M685 291q-32 -162 -127.5 -233t-256.5 -71q-78 0 -136 23t-93 67.5t-45.5 108.5t5.5 145l25 128q16 81 49 138.5t82 94t112.5 54t139.5 17.5q79 0 137.5 -23.5t93 -68t45 -108t-5.5 -144.5zM530 423q20 97 -8 140t-106 43q-79 0 -124.5 -43t-63.5 -140l-18 -96
q-19 -97 9 -140t107 -43q78 0 122.5 43t63.5 140zM483 954q34 0 59 -12t40 -32t20 -48t0 -59h-86q7 61 -44 61q-52 0 -68 -61h-94q7 33 20.5 60.5t35 47.5t50.5 31.5t67 11.5z" />
    <glyph glyph-name="uni020F" unicode="&#x20f;" horiz-adv-x="600" 
d="M226 -13q-130 0 -183.5 71t-28.5 197l16 80q24 120 99 176t202 56q67 0 113.5 -19.5t73 -55.5t34 -86t-4.5 -110l-16 -80q-12 -63 -37 -106.5t-62.5 -70.5t-88.5 -39.5t-117 -12.5zM311 432q-44 0 -71 -24t-41 -93l-13 -66q-13 -69 3.5 -98t60.5 -29t71.5 24.5t40.5 93.5
l13 66q14 69 -3 97.5t-61 28.5zM361 754q34 0 59 -12t40 -32t20 -48t0 -59h-86q7 61 -44 61q-52 0 -68 -61h-94q7 33 20.5 60.5t35 47.5t50.5 31.5t67 11.5z" />
    <glyph glyph-name="uni0210" unicode="&#x210;" horiz-adv-x="678" 
d="M135 750h295q62 0 109 -10.5t77 -35.5t40.5 -66t-1.5 -102l-15 -75q-7 -35 -18 -59.5t-26.5 -42.5t-36.5 -31t-48 -23l81 -305h-186l-66 281h-118l-54 -281h-178zM288 621l-41 -210h82q34 0 57.5 3.5t40 13t26 26.5t15.5 45l7 41q9 45 -12.5 63t-79.5 18h-95zM396 801
h-100l-41 147h121zM571 801h-102l-41 147h122z" />
    <glyph glyph-name="uni0211" unicode="&#x211;" horiz-adv-x="413" 
d="M403 399q-48 -1 -96.5 -13.5t-83.5 -35.5l-67 -350h-172l107 553h126l-2 -77q41 36 95 62t126 29zM249 601h-100l-41 147h121zM424 601h-102l-41 147h122z" />
    <glyph glyph-name="uni0212" unicode="&#x212;" horiz-adv-x="678" 
d="M135 750h295q62 0 109 -10.5t77 -35.5t40.5 -66t-1.5 -102l-15 -75q-7 -35 -18 -59.5t-26.5 -42.5t-36.5 -31t-48 -23l81 -305h-186l-66 281h-118l-54 -281h-178zM288 621l-41 -210h82q34 0 57.5 3.5t40 13t26 26.5t15.5 45l7 41q9 45 -12.5 63t-79.5 18h-95zM443 954
q34 0 59 -12t40 -32t20 -48t0 -59h-86q7 61 -44 61q-52 0 -68 -61h-94q7 33 20.5 60.5t35 47.5t50.5 31.5t67 11.5z" />
    <glyph glyph-name="uni0213" unicode="&#x213;" horiz-adv-x="413" 
d="M403 399q-48 -1 -96.5 -13.5t-83.5 -35.5l-67 -350h-172l107 553h126l-2 -77q41 36 95 62t126 29zM291 754q34 0 59 -12t40 -32t20 -48t0 -59h-86q7 61 -44 61q-52 0 -68 -61h-94q7 33 20.5 60.5t35 47.5t50.5 31.5t67 11.5z" />
    <glyph glyph-name="uni0214" unicode="&#x214;" horiz-adv-x="745" 
d="M318 750l-81 -423q-10 -51 -8 -84.5t15 -53.5t38 -28t62 -8t64 8t46 28t32 53.5t23 84.5l81 423h179l-94 -484q-15 -76 -42.5 -129t-68.5 -86.5t-97 -48.5t-129 -15q-80 0 -140 20t-97.5 59.5t-50 98t2.5 135.5l87 450h178zM430 801h-100l-41 147h121zM605 801h-102
l-41 147h122z" />
    <glyph glyph-name="uni0215" unicode="&#x215;" horiz-adv-x="602" 
d="M84 553h172l-70 -357q-7 -35 -1.5 -52t35.5 -17q23 0 51 9t53 24l76 393h172l-107 -553h-128l-4 47q-48 -32 -95.5 -45.5t-92.5 -13.5q-50 0 -80 16t-44.5 43t-16 62t6.5 72zM313 601h-100l-41 147h121zM488 601h-102l-41 147h122z" />
    <glyph glyph-name="uni0216" unicode="&#x216;" horiz-adv-x="745" 
d="M318 750l-81 -423q-10 -51 -8 -84.5t15 -53.5t38 -28t62 -8t64 8t46 28t32 53.5t23 84.5l81 423h179l-94 -484q-15 -76 -42.5 -129t-68.5 -86.5t-97 -48.5t-129 -15q-80 0 -140 20t-97.5 59.5t-50 98t2.5 135.5l87 450h178zM492 954q34 0 59 -12t40 -32t20 -48t0 -59h-86
q7 61 -44 61q-52 0 -68 -61h-94q7 33 20.5 60.5t35 47.5t50.5 31.5t67 11.5z" />
    <glyph glyph-name="uni0217" unicode="&#x217;" horiz-adv-x="602" 
d="M84 553h172l-70 -357q-7 -35 -1.5 -52t35.5 -17q23 0 51 9t53 24l76 393h172l-107 -553h-128l-4 47q-48 -32 -95.5 -45.5t-92.5 -13.5q-50 0 -80 16t-44.5 43t-16 62t6.5 72zM366 754q34 0 59 -12t40 -32t20 -48t0 -59h-86q7 61 -44 61q-52 0 -68 -61h-94q7 33 20.5 60.5
t35 47.5t50.5 31.5t67 11.5z" />
    <glyph glyph-name="uni0218" unicode="&#x218;" 
d="M218 -10q-55 0 -119.5 8.5t-121.5 31.5l28 144q60 -22 115.5 -30.5t99.5 -8.5q73 0 111 20.5t38 74.5q0 14 -6 24t-19 17.5t-34 15t-51 17.5l-68 22q-59 19 -94.5 63.5t-35.5 110.5q0 134 83 197t243 63q30 0 61 -1.5t59 -5t52 -8t41 -10.5l-27 -137q-38 10 -85.5 15
t-89.5 5q-86 0 -120 -21.5t-34 -67.5q0 -14 7 -23.5t20.5 -16.5t32 -13t42.5 -14l70 -24q67 -23 103 -59.5t36 -102.5q0 -79 -23.5 -133.5t-67.5 -88.5t-106 -49t-140 -15zM191 -46h142l-103 -194h-117z" />
    <glyph glyph-name="uni0219" unicode="&#x219;" horiz-adv-x="485" 
d="M179 -10q-23 0 -49.5 2t-53.5 6.5t-53 10.5t-47 14l25 127q58 -20 107 -25.5t77 -5.5q57 0 77 11.5t20 43.5q0 14 -12.5 21.5t-47.5 17.5l-57 16q-65 18 -93 53t-28 88q0 105 63 151t196 46q54 0 97.5 -7t66.5 -14l-24 -122q-14 4 -32.5 8t-39 7t-40.5 4.5t-36 1.5
q-57 0 -76.5 -11.5t-19.5 -38.5q0 -14 15.5 -21.5t53.5 -18.5l59 -17q34 -10 56.5 -24t35.5 -31t18 -37t5 -42q0 -60 -19.5 -101t-54.5 -66t-83 -36t-106 -11zM136 -46h142l-103 -194h-117z" />
    <glyph glyph-name="uni021A" unicode="&#x21a;" horiz-adv-x="655" 
d="M56 594l30 156h612l-30 -156h-217l-114 -594h-177l114 594h-218zM173 -46h142l-103 -194h-117z" />
    <glyph glyph-name="uni021B" unicode="&#x21b;" horiz-adv-x="439" 
d="M425 429h-142l-47 -240q-8 -39 -0.5 -53t40.5 -14q23 0 46.5 4t45.5 14l-23 -123q-32 -16 -73.5 -21.5t-76.5 -5.5q-46 0 -76 12.5t-46 35t-19.5 54.5t4.5 71l52 266h-84l24 124h84l22 115l180 34l-29 -149h142zM86 -46h142l-103 -194h-117z" />
    <glyph glyph-name="uni021C" unicode="&#x21c;" horiz-adv-x="548" 
d="M118 325l26 137l117 11q52 4 81.5 24.5t29.5 73.5q0 11 -4.5 19.5t-15.5 14.5t-30.5 9.5t-50.5 3.5q-19 0 -43.5 -1.5t-51 -5t-54 -9t-52.5 -13.5l28 142q19 7 45 12.5t54 9t55.5 5.5t50.5 2q133 0 191.5 -43t58.5 -119q0 -49 -24.5 -100.5t-82.5 -92.5q38 -18 53.5 -47
t15.5 -65q0 -72 -30.5 -123.5t-80 -86.5t-112.5 -56t-129 -33t-129.5 -16.5t-113.5 -6.5l27 146q93 7 165 16t122 26.5t76 47t26 77.5q0 43 -40 61q-30 -6 -63 -9z" />
    <glyph glyph-name="uni021D" unicode="&#x21d;" horiz-adv-x="548" 
d="M78 132l24 126l120 11q25 2 47 8t38.5 18.5t26.5 32t10 49.5q0 26 -23 42t-88 16q-19 0 -43.5 -1.5t-51 -5t-54 -9t-52.5 -13.5l25 127q19 7 45.5 13t54.5 10t55.5 6t50.5 2q67 0 113.5 -12t75.5 -34t42 -52.5t13 -67.5q0 -51 -23 -102t-81 -89q37 -19 51.5 -48t14.5 -64
q0 -72 -31 -123t-82 -86t-114.5 -56.5t-129.5 -33t-127 -16.5t-106 -7l28 141q96 7 170.5 16t126 28t78.5 52t27 89q0 40 -32 57q-19 -5 -39 -8t-43 -5z" />
    <glyph glyph-name="uni021E" unicode="&#x21e;" horiz-adv-x="726" 
d="M736 750l-145 -750h-177l58 303h-247l-58 -303h-177l145 750h177l-56 -285h247l56 285h177zM309 960h104l44 -76l71 76h114l-141 -170h-117z" />
    <glyph glyph-name="uni021F" unicode="&#x21f;" horiz-adv-x="601" 
d="M475 0h-173l68 357q7 35 2 51t-37 16q-23 0 -50 -8.5t-52 -22.5l-76 -393h-173l145 744l178 30l-49 -250q38 20 80 31.5t79 11.5q47 0 76 -16t43 -43t16 -61.5t-5 -71.5zM273 960h104l44 -76l71 76h114l-141 -170h-117z" />
    <glyph glyph-name="uni0220" unicode="&#x220;" horiz-adv-x="693" 
d="M526 -216h-181l142 733q9 45 0.5 67t-47.5 22q-37 0 -81.5 -17t-83.5 -37l-107 -552h-178l145 750h152l3 -59q60 38 118.5 57t119.5 19q49 0 81.5 -16t50.5 -45t21.5 -68.5t-5.5 -85.5z" />
    <glyph glyph-name="uni0221" unicode="&#x221;" horiz-adv-x="716" 
d="M382 74q-32 -23 -59 -38.5t-53.5 -26t-53.5 -15t-58 -4.5q-48 0 -81 16.5t-51 44t-22.5 64.5t3.5 78l34 172q12 60 36 99t57.5 62t74 32t85.5 9q41 0 72 -6.5t54 -18.5l40 202l178 30l-120 -619q15 4 30 6.5t31 2.5q30 0 49.5 -8.5t31 -22t15.5 -31t4 -35.5
q0 -29 -11 -53t-30 -40.5t-45 -25.5t-55 -9q-36 0 -63.5 13t-47.5 32q-18 -23 -32.5 -45t-25.5 -38h-110q23 38 53.5 82.5t69.5 83.5v7zM393 406q-13 11 -34.5 17t-44.5 6q-21 0 -38 -4t-30.5 -14.5t-23 -29t-15.5 -47.5l-23 -118q-8 -42 2 -65t48 -23q29 0 57.5 9t54.5 26z
M550 32q13 0 25 5.5t14 20.5q5 23 -28 23q-25 0 -54 -18q6 -31 43 -31z" />
    <glyph glyph-name="uni0222" unicode="&#x222;" horiz-adv-x="597" 
d="M260 322l-20 -11q-46 -25 -67 -51t-21 -69q0 -32 25.5 -48.5t72.5 -16.5q60 0 92.5 28.5t32.5 79.5q0 27 -18 46.5t-61 31.5zM431 762q46 -4 79.5 -18.5t55 -36t31.5 -50t10 -61.5q0 -80 -37.5 -133t-110.5 -86q54 -20 74.5 -53t20.5 -76q0 -54 -19.5 -101.5t-59.5 -83
t-101 -55.5t-144 -20q-68 0 -115.5 13t-77.5 35.5t-43.5 53t-13.5 66.5q0 79 39.5 139t124.5 91q-42 18 -60 49.5t-18 73.5q0 60 20 105t55.5 76.5t82.5 49t101 22.5l-25 -133q-29 -11 -43.5 -38t-14.5 -58q0 -52 59 -69l43 -12l27 12q14 6 27.5 15t24 23t16.5 34t6 49
q0 17 -8 30t-31 18z" />
    <glyph glyph-name="uni0223" unicode="&#x223;" horiz-adv-x="558" 
d="M244 326l-19 -12q-43 -27 -66 -57t-23 -73q0 -31 21 -48t71 -17q57 0 90 31.5t33 82.5q0 28 -17.5 48t-56.5 34zM413 775q81 -8 118 -54t37 -110q0 -75 -35 -131t-110 -95q45 -23 66.5 -59.5t21.5 -82.5q0 -54 -20.5 -100.5t-59.5 -81t-95 -54t-127 -19.5
q-61 0 -104.5 13t-71 36t-40.5 54t-13 67q0 81 41.5 141.5t119.5 95.5q-38 22 -55 56.5t-17 76.5q0 58 20 102.5t53 75t75.5 47.5t88.5 22l-25 -128q-26 -11 -42.5 -37.5t-16.5 -64.5q0 -31 17 -45t43 -25l39 -17l26 17q12 8 25.5 19t24 25.5t17.5 34t7 45.5q0 17 -6.5 30.5
t-25.5 21.5z" />
    <glyph glyph-name="uni0224" unicode="&#x224;" horiz-adv-x="653" 
d="M280 222l-18 -18t-17.5 -16.5t-20.5 -19t-27 -24.5h369l-27 -144h-1v-1q-17 -89 -67 -131t-148 -42q-36 0 -64 2.5t-53 8.5l24 125q17 -5 36 -6.5t31 -1.5q27 0 41.5 10t21.5 36h-396l26 137l370 392q23 24 41.5 41.5t38.5 36.5h-343l27 143h549l-26 -136z" />
    <glyph glyph-name="uni0225" unicode="&#x225;" horiz-adv-x="519" 
d="M491 448l-230 -255q-17 -19 -35 -36t-39 -36h253l-11 -60l-11 -61l-1 -5q-8 -45 -23 -77t-40 -52.5t-60 -30t-84 -9.5q-30 0 -53.5 2.5t-49.5 8.5l23 117q16 -5 35 -6.5t36 -1.5q29 0 50 10t27 38l1 6h-319l20 105l230 253q16 17 34 37t39 37h-229l24 121h433z" />
    <glyph glyph-name="uni0226" unicode="&#x226;" horiz-adv-x="726" 
d="M538 750l111 -750h-187l-20 162h-236l-82 -162h-187l394 750h207zM274 310h155l-15 162q-2 17 -3 31.5t-2 29.5t-1 31.5t1 36.5q-6 -20 -12.5 -36t-13 -31t-14 -29.5t-15.5 -32.5zM416 938h114l-24 -126h-114z" />
    <glyph glyph-name="uni0227" unicode="&#x227;" horiz-adv-x="568" 
d="M446 0h-128l-6 50q-35 -25 -80.5 -42.5t-101.5 -17.5q-37 0 -66 10t-47 30.5t-24 51.5t2 73l7 38q9 47 28 77t51 46.5t77.5 22.5t107.5 6h80l6 30q4 21 3.5 35t-8 22t-23 11t-40.5 3q-14 0 -35 -2t-45 -6.5t-49.5 -10.5t-49.5 -15l24 122q44 16 98.5 24.5t96.5 8.5
q66 0 107.5 -15.5t63 -43t25.5 -66.5t-5 -87zM326 240h-64q-18 0 -34 -0.5t-28 -5.5t-21 -15.5t-13 -31.5l-4 -23q-12 -54 41 -54q23 0 52.5 8t51.5 25zM302 738h114l-24 -126h-114z" />
    <glyph glyph-name="uni0228" unicode="&#x228;" 
d="M201 -273q-20 0 -45.5 2t-45.5 6l17 84q14 -2 33.5 -3.5t43.5 -1.5q37 0 52 9.5t18 23.5l2 10q4 17 -8.5 26.5t-59.5 9.5h-25l21 107h-214l145 750h500l-27 -143h-322l-30 -154h290l-28 -142h-290l-33 -168h336l-27 -143h-196l-9 -47q30 -3 49 -12t28.5 -23t11.5 -32
t-2 -38l-3 -15q-6 -31 -20.5 -51.5t-37.5 -32.5t-54 -17t-70 -5z" />
    <glyph glyph-name="uni0229" unicode="&#x229;" horiz-adv-x="574" 
d="M161 -273q-20 0 -45.5 2t-45.5 6l17 84q14 -2 33.5 -3.5t43.5 -1.5q37 0 52 9.5t18 23.5l2 10q4 17 -8.5 26.5t-59.5 9.5h-25l20 104q-193 36 -149 258l14 70q13 69 40.5 115.5t65 74.5t83.5 40t97 12q56 0 101.5 -15t75 -48.5t39.5 -87t-5 -130.5l-13 -67h-338l-2 -11
q-5 -29 0 -47.5t19.5 -29.5t39 -15t57.5 -4q32 0 77.5 6t86.5 20l-23 -118q-31 -14 -76 -21.5t-87 -9.5l-7 -36q30 -3 49 -12t28.5 -23t11.5 -32t-2 -38l-3 -15q-6 -31 -20.5 -51.5t-37.5 -32.5t-54 -17t-70 -5zM371 323l4 21q9 46 -7.5 72t-63.5 26q-44 0 -70.5 -26
t-35.5 -74l-4 -19h177z" />
    <glyph glyph-name="uni022A" unicode="&#x22a;" horiz-adv-x="742" 
d="M685 291q-32 -162 -127.5 -233t-256.5 -71q-78 0 -136 23t-93 67.5t-45.5 108.5t5.5 145l25 128q16 81 49 138.5t82 94t112.5 54t139.5 17.5q79 0 137.5 -23.5t93 -68t45 -108t-5.5 -144.5zM530 423q20 97 -8 140t-106 43q-79 0 -124.5 -43t-63.5 -140l-18 -96
q-19 -97 9 -140t107 -43q78 0 122.5 43t63.5 140zM323 906h112l-24 -126h-112zM513 906h112l-24 -126h-112zM354 1050h296l-21 -106h-296z" />
    <glyph glyph-name="uni022B" unicode="&#x22b;" horiz-adv-x="600" 
d="M226 -13q-130 0 -183.5 71t-28.5 197l16 80q24 120 99 176t202 56q67 0 113.5 -19.5t73 -55.5t34 -86t-4.5 -110l-16 -80q-12 -63 -37 -106.5t-62.5 -70.5t-88.5 -39.5t-117 -12.5zM311 432q-44 0 -71 -24t-41 -93l-13 -66q-13 -69 3.5 -98t60.5 -29t71.5 24.5t40.5 93.5
l13 66q14 69 -3 97.5t-61 28.5zM214 711h112l-24 -126h-112zM404 711h112l-24 -126h-112zM244 847h296l-21 -106h-296z" />
    <glyph glyph-name="uni022C" unicode="&#x22c;" horiz-adv-x="742" 
d="M685 291q-32 -162 -127.5 -233t-256.5 -71q-78 0 -136 23t-93 67.5t-45.5 108.5t5.5 145l25 128q16 81 49 138.5t82 94t112.5 54t139.5 17.5q79 0 137.5 -23.5t93 -68t45 -108t-5.5 -144.5zM530 423q20 97 -8 140t-106 43q-79 0 -124.5 -43t-63.5 -140l-18 -96
q-19 -97 9 -140t107 -43q78 0 122.5 43t63.5 140zM517 779q-25 0 -39.5 7t-24 16t-17.5 16t-20 7q-16 0 -25.5 -13t-16.5 -33h-96q7 25 18.5 51.5t28 48.5t38.5 36t51 14q26 0 41.5 -7t26 -16t18.5 -16t19 -7q18 0 26 14t13 34h96q-7 -24 -17 -50.5t-26 -49t-39 -37.5
t-55 -15zM356 1057h296l-21 -106h-296z" />
    <glyph glyph-name="uni022D" unicode="&#x22d;" horiz-adv-x="600" 
d="M226 -13q-130 0 -183.5 71t-28.5 197l16 80q24 120 99 176t202 56q67 0 113.5 -19.5t73 -55.5t34 -86t-4.5 -110l-16 -80q-12 -63 -37 -106.5t-62.5 -70.5t-88.5 -39.5t-117 -12.5zM311 432q-44 0 -71 -24t-41 -93l-13 -66q-13 -69 3.5 -98t60.5 -29t71.5 24.5t40.5 93.5
l13 66q14 69 -3 97.5t-61 28.5zM409 585q-25 0 -39.5 7t-24 16t-17.5 16t-20 7q-16 0 -25.5 -13t-16.5 -33h-96q7 25 18.5 51.5t28 48.5t38.5 36t51 14q26 0 41.5 -7t26 -16t18.5 -16t19 -7q18 0 26 14t13 34h96q-7 -24 -17 -50.5t-26 -49t-39 -37.5t-55 -15zM248 867h296
l-21 -106h-296z" />
    <glyph glyph-name="uni022E" unicode="&#x22e;" horiz-adv-x="742" 
d="M685 291q-32 -162 -127.5 -233t-256.5 -71q-78 0 -136 23t-93 67.5t-45.5 108.5t5.5 145l25 128q16 81 49 138.5t82 94t112.5 54t139.5 17.5q79 0 137.5 -23.5t93 -68t45 -108t-5.5 -144.5zM530 423q20 97 -8 140t-106 43q-79 0 -124.5 -43t-63.5 -140l-18 -96
q-19 -97 9 -140t107 -43q78 0 122.5 43t63.5 140zM423 938h114l-24 -126h-114z" />
    <glyph glyph-name="uni022F" unicode="&#x22f;" horiz-adv-x="600" 
d="M226 -13q-130 0 -183.5 71t-28.5 197l16 80q24 120 99 176t202 56q67 0 113.5 -19.5t73 -55.5t34 -86t-4.5 -110l-16 -80q-12 -63 -37 -106.5t-62.5 -70.5t-88.5 -39.5t-117 -12.5zM311 432q-44 0 -71 -24t-41 -93l-13 -66q-13 -69 3.5 -98t60.5 -29t71.5 24.5t40.5 93.5
l13 66q14 69 -3 97.5t-61 28.5zM313 738h114l-24 -126h-114z" />
    <glyph glyph-name="uni0230" unicode="&#x230;" horiz-adv-x="742" 
d="M685 291q-32 -162 -127.5 -233t-256.5 -71q-78 0 -136 23t-93 67.5t-45.5 108.5t5.5 145l25 128q16 81 49 138.5t82 94t112.5 54t139.5 17.5q79 0 137.5 -23.5t93 -68t45 -108t-5.5 -144.5zM530 423q20 97 -8 140t-106 43q-79 0 -124.5 -43t-63.5 -140l-18 -96
q-19 -97 9 -140t107 -43q78 0 122.5 43t63.5 140zM418 916h114l-24 -126h-114zM354 1050h296l-21 -106h-296z" />
    <glyph glyph-name="uni0231" unicode="&#x231;" horiz-adv-x="600" 
d="M226 -13q-130 0 -183.5 71t-28.5 197l16 80q24 120 99 176t202 56q67 0 113.5 -19.5t73 -55.5t34 -86t-4.5 -110l-16 -80q-12 -63 -37 -106.5t-62.5 -70.5t-88.5 -39.5t-117 -12.5zM311 432q-44 0 -71 -24t-41 -93l-13 -66q-13 -69 3.5 -98t60.5 -29t71.5 24.5t40.5 93.5
l13 66q14 69 -3 97.5t-61 28.5zM309 717h114l-24 -126h-114zM244 847h296l-21 -106h-296z" />
    <glyph glyph-name="uni0232" unicode="&#x232;" horiz-adv-x="659" 
d="M393 295l-56 -295h-178l56 293l-151 457h181l53 -188q9 -33 16 -64.5t13 -75.5q22 44 41 75.5t41 64.5l124 188h186zM280 935h296l-21 -106h-296z" />
    <glyph glyph-name="uni0233" unicode="&#x233;" horiz-adv-x="588" 
d="M217 735h296l-21 -106h-296zM615 553l-415 -766h-179l115 213l-92 553h170l35 -289q3 -26 4 -53t0 -68q16 41 28 68t24 52l138 290h172z" />
    <glyph glyph-name="uni0234" unicode="&#x234;" horiz-adv-x="396" 
d="M148 744l178 30l-106 -542h15q41 0 68 -9.5t43.5 -24.5t23 -34t6.5 -38q0 -29 -10.5 -54.5t-31.5 -44t-53.5 -29.5t-77.5 -11q-49 0 -88 15t-60 52q-22 -28 -35 -54h-110q23 40 52.5 84.5t74.5 79.5q1 12 2.5 24.5t4.5 26.5zM204 127q0 -23 8.5 -35t28.5 -12
q5 0 12.5 1.5t14 6t11.5 11.5t5 18t-10 18.5t-38 7.5q-8 0 -16 -0.5t-16 -1.5v-14z" />
    <glyph glyph-name="uni0235" unicode="&#x235;" horiz-adv-x="676" 
d="M370 357q4 19 4 35q0 17 -8.5 24.5t-30.5 7.5q-23 0 -51.5 -8t-51.5 -24l-76 -392h-172l107 553h128l3 -47q47 30 99.5 45.5t93.5 15.5q39 0 65 -10.5t42.5 -29t23.5 -43t7 -52.5q0 -14 -2 -29.5t-5 -31.5l-28 -146q38 0 64 -8.5t42.5 -23t24 -32.5t7.5 -36
q0 -61 -37 -99.5t-123 -38.5q-58 0 -92.5 21t-51.5 56q-14 -17 -24.5 -33.5t-18.5 -30.5h-109q23 43 55.5 88.5t80.5 80.5q1 19 6 40zM529 80q10 0 22 7.5t12 27.5q0 12 -11 18t-37 6q-9 0 -14 -1q-1 -10 -1 -20.5t2.5 -18.5t9 -13.5t17.5 -5.5z" />
    <glyph glyph-name="uni0236" unicode="&#x236;" horiz-adv-x="468" 
d="M139 429h-84l24 124h84l22 115l180 34l-29 -149h142l-24 -124h-142l-40 -205q35 -2 59 -11.5t38.5 -23.5t20.5 -31.5t6 -34.5q0 -29 -8.5 -54t-27 -43t-49 -28.5t-74.5 -10.5q-60 0 -92.5 23.5t-46.5 61.5q-17 -18 -29 -37t-20 -35h-109q25 46 60.5 95.5t90.5 83.5
q1 6 1.5 12.5t2.5 12.5zM277 80q11 0 18 7t7 25q0 11 -9 19t-38 8q-5 -27 -1.5 -43t23.5 -16z" />
    <glyph glyph-name="uni0237" unicode="&#x237;" horiz-adv-x="315" 
d="M285 553l-115 -591q-11 -59 -30.5 -95t-47.5 -56t-64 -27t-81 -7q-40 0 -72 4t-60 11l28 138q23 -5 43.5 -6.5t38.5 -1.5t31 2.5t22 10.5t15.5 22.5t11.5 39.5l108 556h172z" />
    <glyph glyph-name="uni0238" unicode="&#x238;" horiz-adv-x="954" 
d="M759 567q50 0 82.5 -17.5t49.5 -46t20.5 -65.5t-3.5 -77l-33 -172q-11 -56 -31 -94t-51 -61t-72.5 -33.5t-94.5 -10.5q-46 0 -88 14t-68 37l-17 -41h-95l-5 49q-36 -26 -80.5 -42.5t-107.5 -16.5q-48 0 -81 16.5t-51 44t-22.5 64.5t3.5 78l34 172q12 60 36 99t57.5 62
t74 32t85.5 9q41 0 72 -6.5t54 -18.5l40 202l178 30l-50 -252q36 21 78.5 33t85.5 12zM400 406q-13 11 -34.5 17t-44.5 6q-21 0 -38 -4t-30.5 -14.5t-23 -29t-15.5 -47.5l-23 -118q-8 -42 2 -65t48 -23q29 0 57.5 9t54.5 26zM525 159q13 -12 37 -21t53 -9q40 0 62.5 22.5
t33.5 77.5l22 116q8 45 -4.5 64.5t-49.5 19.5q-26 0 -56 -10t-52 -26z" />
    <glyph glyph-name="uni0239" unicode="&#x239;" horiz-adv-x="955" 
d="M760 567q50 0 82.5 -17.5t50 -46.5t21 -66t-4.5 -77l-31 -158q-12 -57 -32.5 -97.5t-52 -66t-75 -37t-101.5 -11.5q-23 0 -56.5 4t-64.5 14l-44 -224h-173l47 242q-65 -36 -151 -36q-54 0 -89 16.5t-53.5 45t-22.5 65.5t4 78l33 168q12 60 35.5 99.5t56.5 62.5t74 32.5
t88 9.5q38 0 77.5 -9t71.5 -36l19 31h98l1 -42q54 30 99.5 43t92.5 13zM521 137q23 -7 42 -9t40 -2q45 0 70.5 22t36.5 74l23 121q8 45 -4 65.5t-50 20.5q-25 0 -53 -9t-55 -25zM399 402q-13 14 -33.5 21t-43.5 7q-42 0 -69.5 -20.5t-38.5 -78.5l-23 -119q-9 -44 4 -64
t53 -20q57 0 102 21z" />
    <glyph glyph-name="uni023A" unicode="&#x23a;" horiz-adv-x="718" 
d="M125 -43l133 205h-52l-82 -162h-187l394 750h207l19 -128l110 170h91l-184 -284l75 -508h-187l-20 162h-93l-133 -205h-91zM274 310h80l65 101l-5 61q-2 17 -3 31.5t-2 29.5t-1 31.5t1 36.5q-6 -20 -12.5 -36t-13 -31t-14 -29.5t-15.5 -32.5z" />
    <glyph glyph-name="uni023B" unicode="&#x23b;" horiz-adv-x="622" 
d="M617 587q-34 7 -79 12l-283 -436q33 -16 102 -16q40 0 90 4.5t101 18.5l-30 -150q-23 -9 -50.5 -15t-56 -9t-56.5 -4.5t-51 -1.5q-90 0 -148 21l-35 -54h-91l60 92q-93 81 -51 286l23 118q18 93 50.5 152.5t81 94t113 47.5t146.5 13q24 0 48 -1.5t47 -3.5l24 37h91
l-34 -52l18 -5zM239 441l-24 -125q-10 -49 -7 -85l242 373h-3q-54 0 -90 -10.5t-59.5 -31t-37 -51t-21.5 -70.5z" />
    <glyph glyph-name="uni023C" unicode="&#x23c;" horiz-adv-x="526" 
d="M482 420q-14 4 -32 8t-39 6l-164 -312q9 -1 19.5 -1.5t23.5 -0.5q32 0 69 5t79 19l-25 -129q-18 -7 -41.5 -12t-48.5 -8.5t-48.5 -5t-40.5 -1.5q-15 0 -29 1t-27 3l-18 -35h-78l27 52q-69 29 -90.5 94.5t-2.5 162.5l14 72q13 67 39.5 111t66 70.5t93 37t119.5 10.5
q13 0 26 -0.5t27 -1.5l26 49h78l-32 -60q17 -4 33 -11zM195 311l-14 -67q-12 -62 5 -90l148 283q-64 -3 -95.5 -32.5t-43.5 -93.5z" />
    <glyph glyph-name="uni023D" unicode="&#x23d;" horiz-adv-x="584" 
d="M6 458h72l57 292h178l-57 -292h155l-23 -111h-153l-37 -191h316l-30 -156h-494l67 347h-74z" />
    <glyph glyph-name="uni023E" unicode="&#x23e;" horiz-adv-x="655" 
d="M9 -43l202 312l63 325h-218l30 156h437l28 42h91l-28 -42h84l-30 -156h-155l-89 -137l-87 -457h-177l13 70l-73 -113h-91z" />
    <glyph glyph-name="uni023F" unicode="&#x23f;" horiz-adv-x="485" 
d="M380 -72l-20 -106q-31 0 -65 2t-68.5 11.5t-67 29t-59.5 54.5q-24 30 -43 48.5t-34 29.5t-26.5 16.5t-20.5 9.5l25 127q58 -20 107 -25.5t77 -5.5q57 0 77 11.5t20 43.5q0 14 -12.5 21.5t-47.5 17.5l-57 16q-65 18 -93 53t-28 88q0 105 63 151t196 46q54 0 97.5 -7
t66.5 -14l-24 -122q-14 4 -32.5 8t-39 7t-40.5 4.5t-36 1.5q-57 0 -76.5 -11.5t-19.5 -38.5q0 -14 15.5 -21.5t53.5 -18.5l59 -17q34 -10 56.5 -24t35.5 -31t18 -37t5 -42q0 -59 -18 -99t-51 -65t-78.5 -37t-100.5 -13q38 -35 83 -49t103 -13z" />
    <glyph glyph-name="uni0240" unicode="&#x240;" horiz-adv-x="519" 
d="M491 448l-235 -255q-30 -32 -61.5 -63.5t-78.5 -62.5q18 -8 30.5 -15t28.5 -20q24 -20 47.5 -35t50 -26t57 -16.5t69.5 -5.5l-24 -125q-52 0 -90 5.5t-70 18t-60.5 32.5t-61.5 48q-30 26 -51.5 39t-36.5 19t-25.5 8t-19.5 6l20 105l234 253q16 17 35 37t40 37h-235
l24 121h433z" />
    <glyph glyph-name="uni0241" unicode="&#x241;" horiz-adv-x="482" 
d="M64 0l40 211q6 34 15.5 61t24.5 50.5t37 45t54 45.5q27 19 45.5 37t30.5 36.5t17.5 39.5t5.5 47q0 29 -22 40t-78 11q-42 0 -87 -9.5t-87 -24.5l25 129q38 16 90.5 27t105.5 11q60 0 102 -12t68.5 -33.5t38.5 -50.5t12 -63q0 -46 -11.5 -82t-31.5 -66t-48 -56t-62 -52
q-30 -23 -48 -40.5t-28.5 -34.5t-16 -34.5t-9.5 -38.5l-37 -194h-146z" />
    <glyph glyph-name="uni0242" unicode="&#x242;" horiz-adv-x="413" 
d="M61 0l20 105q5 27 11.5 48t16 38t23 32t31.5 29q25 20 43.5 34t30.5 28.5t17.5 32t5.5 44.5q0 24 -17 35t-57 11q-39 0 -79 -9.5t-82 -24.5l24 120q38 16 84 26.5t106 10.5q50 0 84.5 -11t55.5 -30t30 -45.5t9 -56.5q0 -49 -10 -82t-25.5 -55.5t-35.5 -39t-40 -32.5
q-23 -18 -38.5 -31t-26.5 -26t-17.5 -28.5t-10.5 -38.5l-15 -84h-138z" />
    <glyph glyph-name="uni0243" unicode="&#x243;" horiz-adv-x="693" 
d="M1 269h66l93 481h308q53 0 95 -8t69.5 -27.5t38.5 -52t1 -81.5l-11 -58q-5 -22 -13 -43t-21.5 -39t-33.5 -32.5t-48 -23.5q61 -13 80 -52t8 -90l-15 -79q-11 -54 -32 -86.5t-55.5 -49.5t-84.5 -22.5t-119 -5.5h-312l31 160h-66zM314 625l-35 -179h102q19 0 35.5 2t29 9.5
t21 22.5t13.5 40l7 37q8 41 -9.5 54.5t-66.5 13.5h-97zM256 327l-12 -58h110l-21 -109h-110l-7 -35h98q32 0 54.5 3.5t37 13t23.5 25.5t14 41l6 33q9 47 -9.5 66.5t-77.5 19.5h-106z" />
    <glyph glyph-name="uni0244" unicode="&#x244;" horiz-adv-x="805" 
d="M65 470h67l54 280h178l-54 -280h272l54 280h179l-55 -280h69l-21 -111h-69l-18 -93q-15 -76 -42.5 -129t-68.5 -86.5t-97 -48.5t-129 -15q-80 0 -140 20t-97.5 59.5t-50 98t2.5 135.5l11 59h-66zM390 153q37 0 64 8t46 28t32 53.5t23 84.5l6 32h-272l-6 -32
q-10 -51 -8 -84.5t15 -53.5t38 -28t62 -8z" />
    <glyph glyph-name="uni0245" unicode="&#x245;" horiz-adv-x="714" 
d="M449 0l-45 429q-2 19 -3.5 37t-2 37t-0.5 40v48q-9 -27 -17 -48.5t-15.5 -40.5t-15.5 -36.5t-18 -36.5l-214 -429h-184l390 750h207l106 -750h-188z" />
    <glyph glyph-name="uni0246" unicode="&#x246;" 
d="M31 -43l28 43h-69l145 750h410l28 42h91l-30 -46l-26 -139h-64l-100 -154h102l-28 -142h-166l-109 -168h288l-27 -143h-354l-28 -43h-91zM256 453h97l100 154h-167zM214 238l47 73h-33z" />
    <glyph glyph-name="uni0247" unicode="&#x247;" horiz-adv-x="574" 
d="M512 219h-225l-54 -104q24 -3 55 -3q32 0 77.5 6t86.5 20l-23 -118q-17 -8 -39 -13.5t-46 -9.5t-49 -6t-47 -2q-44 0 -78 6l-20 -38h-78l31 58q-125 59 -89 240l14 70q13 69 40.5 115.5t65 74.5t83.5 40t97 12q20 0 38.5 -1.5t35.5 -5.5l29 54h78l-42 -80
q49 -29 70 -89.5t2 -158.5zM304 442q-44 0 -70.5 -26t-35.5 -74l-4 -19h70l61 117q-5 1 -10.5 1.5t-10.5 0.5zM172 208q-7 -35 2 -56l35 67h-35zM371 323l4 21q5 27 2 45l-35 -66h29z" />
    <glyph glyph-name="uni0248" unicode="&#x248;" horiz-adv-x="482" 
d="M75 458h144l57 292h177l-57 -292h86l-21 -111h-86l-27 -139q-11 -57 -27 -98t-43 -68t-69 -39.5t-105 -12.5q-12 0 -33 1.5t-44.5 4.5t-45.5 7.5t-36 10.5l31 153q33 -13 61 -17t54 -4q18 0 31.5 4t23.5 13.5t16.5 25.5t11.5 41l23 117h-143z" />
    <glyph glyph-name="uni0249" unicode="&#x249;" horiz-adv-x="315" 
d="M-46 367h123l36 186h172l-36 -186h82l-21 -107h-82l-58 -298q-11 -59 -30.5 -95t-47.5 -56t-64 -27t-81 -7q-40 0 -72 4t-60 11l28 138q23 -5 43.5 -6.5t38.5 -1.5t31 2.5t22 10.5t15.5 22.5t11.5 39.5l51 263h-123zM299 625h-172l32 163h172z" />
    <glyph glyph-name="uni024A" unicode="&#x24a;" horiz-adv-x="735" 
d="M427 31q-40 -22 -93 -33t-106 -11q-68 0 -111 22t-65.5 58t-27 83t5.5 98l51 266q14 72 44.5 120t72.5 76.5t93 40t105 11.5q23 0 49 -2.5t52 -8.5t51 -17t46 -28l22 39h129l-141 -742q-10 -43 -1 -59.5t43 -16.5q14 0 32 2.5t35 7.5l-29 -148q-35 -8 -57.5 -10t-50.5 -2
q-102 0 -138.5 52.5t-17.5 161.5zM531 562q-30 20 -68.5 29t-73.5 9q-61 0 -92.5 -27.5t-45.5 -98.5l-42 -217q-21 -106 76 -106q62 0 103 11t69 25z" />
    <glyph glyph-name="uni024B" unicode="&#x24b;" horiz-adv-x="619" 
d="M399 402q-13 14 -33.5 21t-43.5 7q-42 0 -69.5 -20.5t-38.5 -78.5l-23 -119q-9 -44 4 -64t53 -20q57 0 102 21zM486 -38q-6 -32 6 -44.5t38 -12.5q12 0 32 1.5t38 6.5l-25 -125q-28 -6 -52.5 -8.5t-58.5 -2.5q-99 0 -134.5 43t-18.5 130l15 76q-65 -36 -151 -36
q-54 0 -89 16.5t-53.5 45t-22.5 65.5t4 78l33 168q12 60 35.5 99.5t56.5 62.5t74 32.5t88 9.5q38 0 77.5 -9t71.5 -36l19 31h133z" />
    <glyph glyph-name="uni024C" unicode="&#x24c;" horiz-adv-x="708" 
d="M13 405h85l67 345h295q62 0 109 -10.5t77 -35.5t40.5 -66t-1.5 -102l-15 -75q-7 -35 -18 -59.5t-26.5 -42.5t-36.5 -31t-48 -23l81 -305h-186l-66 281h-118l-54 -281h-178l56 290h-86zM318 621l-41 -210h82q34 0 57.5 3.5t40 13t26 26.5t15.5 45l7 41q9 45 -12.5 63
t-79.5 18h-95z" />
    <glyph glyph-name="uni024D" unicode="&#x24d;" horiz-adv-x="431" 
d="M1 335h65l43 218h126l-2 -77q41 36 95 62t126 29l-33 -168q-48 -1 -96.5 -13.5t-83.5 -35.5l-3 -15h85l-21 -109h-85l-43 -226h-172l43 226h-65z" />
    <glyph glyph-name="uni024E" unicode="&#x24e;" horiz-adv-x="671" 
d="M418 295l-56 -295h-178l56 293l-87 261h-121l22 109h63l-28 87h181l24 -87h206l58 87h186l-63 -87h67l-22 -109h-123zM352 422q21 42 38.5 71.5t37.5 60.5h-103q8 -31 14.5 -60.5t12.5 -71.5z" />
    <glyph glyph-name="uni024F" unicode="&#x24f;" horiz-adv-x="588" 
d="M615 553l-78 -144h62l-19 -96h-95l-285 -526h-179l115 213l-52 313h-98l19 96h63l-24 144h170l17 -144h143l69 144h172zM249 264q3 -26 4 -53t0 -68q16 41 28 68t24 52l24 50h-86z" />
    <glyph glyph-name="gravecomb" unicode="&#x300;" horiz-adv-x="582" 
d="M459 601h-141l-96 147h167z" />
    <glyph glyph-name="acutecomb" unicode="&#x301;" horiz-adv-x="582" 
d="M328 748h178l-142 -147h-152z" />
    <glyph glyph-name="uni0302" unicode="&#x302;" horiz-adv-x="582" 
d="M311 767h117l74 -170h-105l-41 76l-74 -76h-113z" />
    <glyph glyph-name="tildecomb" unicode="&#x303;" horiz-adv-x="579" 
d="M401 599q-25 0 -39.5 7t-24 16t-17.5 16t-20 7q-16 0 -25.5 -13t-16.5 -33h-96q7 25 18.5 51.5t28 48.5t38.5 36t51 14q26 0 41.5 -7t26 -16t18.5 -16t19 -7q18 0 26 14t13 34h96q-7 -24 -17 -50.5t-26 -49t-39 -37.5t-55 -15z" />
    <glyph glyph-name="uni0304" unicode="&#x304;" horiz-adv-x="582" 
d="M216 735h296l-21 -106h-296z" />
    <glyph glyph-name="uni0306" unicode="&#x306;" horiz-adv-x="592" 
d="M340 603q-34 0 -59 12t-40 32t-20 47.5t0 59.5h86q-7 -59 45 -59q51 0 67 59h94q-7 -33 -20.5 -60.5t-34.5 -47.5t-50.5 -31.5t-67.5 -11.5z" />
    <glyph glyph-name="uni0307" unicode="&#x307;" horiz-adv-x="582" 
d="M307 738h114l-24 -126h-114z" />
    <glyph glyph-name="uni0308" unicode="&#x308;" horiz-adv-x="582" 
d="M213 738h112l-24 -126h-112zM403 738h112l-24 -126h-112z" />
    <glyph glyph-name="hookabovecomb" unicode="&#x309;" horiz-adv-x="582" 
d="M287 594l4 18q3 15 6.5 25t9.5 17.5t16 14.5t27 16q13 7 21 13t8 17q0 7 -6.5 10t-26.5 3q-14 0 -36.5 -4t-41.5 -11l15 74q17 7 41 11.5t47 4.5q57 0 81.5 -21t24.5 -50q0 -21 -6 -34.5t-14.5 -22t-18 -13.5t-17.5 -9q-14 -8 -21.5 -13t-11 -9.5t-5.5 -9.5t-3 -12
l-3 -15h-90z" />
    <glyph glyph-name="uni030A" unicode="&#x30a;" horiz-adv-x="582" 
d="M345 650q20 0 35.5 15t15.5 39q0 15 -9 24t-24 9q-20 0 -35.5 -15t-15.5 -39q0 -15 9 -24t24 -9zM376 805q42 0 67 -24.5t25 -65.5q0 -29 -11.5 -53.5t-30 -42t-43 -27.5t-51.5 -10q-42 0 -67 24.5t-25 65.5q0 29 11.5 53.5t30 42t43 27.5t51.5 10z" />
    <glyph glyph-name="uni030B" unicode="&#x30b;" horiz-adv-x="582" 
d="M413 748h124l-97 -147h-102zM242 748h124l-97 -147h-104z" />
    <glyph glyph-name="uni030C" unicode="&#x30c;" horiz-adv-x="582" 
d="M201 760h104l44 -76l71 76h114l-141 -170h-117z" />
    <glyph glyph-name="uni030F" unicode="&#x30f;" horiz-adv-x="582" 
d="M334 601h-100l-41 147h121zM509 601h-102l-41 147h122z" />
    <glyph glyph-name="uni0310" unicode="&#x310;" horiz-adv-x="582" 
d="M346 603q-37 0 -64.5 12t-45 32t-24 47.5t-1.5 59.5h89q-7 -61 55 -61q63 0 79 61h89q-14 -71 -57.5 -111t-119.5 -40zM333 840h100l-22 -111h-100z" />
    <glyph glyph-name="uni0311" unicode="&#x311;" horiz-adv-x="582" 
d="M365 754q34 0 59 -12t40 -32t20 -48t0 -59h-86q7 61 -44 61q-52 0 -68 -61h-94q7 33 20.5 60.5t35 47.5t50.5 31.5t67 11.5z" />
    <glyph glyph-name="uni0316" unicode="&#x316;" horiz-adv-x="582" 
d="M301 -213h-145l-85 147h171z" />
    <glyph glyph-name="uni0317" unicode="&#x317;" horiz-adv-x="582" 
d="M172 -66h177l-143 -147h-151z" />
    <glyph glyph-name="dotbelowcomb" unicode="&#x323;" horiz-adv-x="582" 
d="M149 -74h114l-25 -126h-114z" />
    <glyph glyph-name="uni0324" unicode="&#x324;" horiz-adv-x="582" 
d="M55 -74h112l-25 -126h-112zM245 -74h112l-25 -126h-112z" />
    <glyph glyph-name="uni0325" unicode="&#x325;" horiz-adv-x="582" 
d="M183 -186q20 0 35.5 15t15.5 39q0 15 -9 24t-24 9q-20 0 -35.5 -15t-15.5 -39q0 -15 9 -24t24 -9zM214 -31q42 0 67 -24.5t25 -65.5q0 -29 -11.5 -53.5t-30 -42t-43 -27.5t-51.5 -10q-42 0 -67 24.5t-25 65.5q0 29 11.5 53.5t30 42t43 27.5t51.5 10z" />
    <glyph glyph-name="uni0326" unicode="&#x326;" horiz-adv-x="582" 
d="M164 -46h142l-103 -194h-117z" />
    <glyph glyph-name="uni0327" unicode="&#x327;" horiz-adv-x="582" 
d="M161 -273q-20 0 -45.5 2t-45.5 6l17 84q14 -2 33.5 -3.5t43.5 -1.5q37 0 52 9.5t18 23.5l2 10q4 17 -8.5 26.5t-59.5 9.5h-25l27 138h104l-15 -78q30 -3 49 -12t28.5 -23t11.5 -32t-2 -38l-3 -15q-6 -31 -20.5 -51.5t-37.5 -32.5t-54 -17t-70 -5z" />
    <glyph glyph-name="uni0328" unicode="&#x328;" horiz-adv-x="582" 
d="M205 -232q-38 0 -64 8.5t-41 22.5t-20 33t-1 40l2 11q3 19 15 37.5t29 34t38 27t42 18.5h105q-48 -26 -74.5 -52t-31.5 -49l-2 -10q-4 -20 9.5 -24.5t32.5 -4.5q15 0 32.5 2t28.5 5l-17 -88q-14 -4 -35 -7.5t-48 -3.5z" />
    <glyph glyph-name="uni032C" unicode="&#x32c;" horiz-adv-x="582" 
d="M41 -59h104l44 -76l71 76h114l-141 -170h-117z" />
    <glyph glyph-name="uni032D" unicode="&#x32d;" horiz-adv-x="582" 
d="M150 -59h117l74 -170h-105l-41 76l-74 -76h-113z" />
    <glyph glyph-name="uni032E" unicode="&#x32e;" horiz-adv-x="582" 
d="M185 -214q-34 0 -59 12t-40 32t-20 47.5t0 59.5h86q-7 -59 44 -59q52 0 68 59h94q-7 -33 -20.5 -60.5t-35 -47.5t-50.5 -31.5t-67 -11.5z" />
    <glyph glyph-name="uni032F" unicode="&#x32f;" horiz-adv-x="582" 
d="M209 -63q34 0 59 -12t40 -32t20 -48t0 -59h-86q7 61 -44 61q-52 0 -68 -61h-94q7 33 20.5 60.5t35 47.5t50.5 31.5t67 11.5z" />
    <glyph glyph-name="uni0330" unicode="&#x330;" horiz-adv-x="582" 
d="M236 -217q-21 0 -34 7t-22.5 16t-18 16t-20.5 7q-16 0 -25.5 -13t-16.5 -33h-96q7 25 19.5 51.5t30.5 48.5t40.5 36t51.5 14q21 0 35 -7t24.5 -16t19.5 -16t20 -7q18 0 26 14t13 34h96q-7 -24 -18 -50.5t-28.5 -49t-41 -37.5t-55.5 -15z" />
    <glyph glyph-name="uni0331" unicode="&#x331;" horiz-adv-x="582" 
d="M56 -83h296l-22 -110h-296z" />
    <glyph glyph-name="uni0340" unicode="&#x340;" horiz-adv-x="582" 
d="M389 601h-141l-96 147h167z" />
    <glyph glyph-name="uni0341" unicode="&#x341;" horiz-adv-x="582" 
d="M258 748h178l-142 -147h-152z" />
    <glyph glyph-name="uni0342" unicode="&#x342;" horiz-adv-x="582" 
d="M395 599q-21 0 -34 7t-22.5 16t-18 16t-20.5 7q-16 0 -25.5 -13t-16.5 -33h-96q7 25 19.5 51.5t30.5 48.5t40.5 36t51.5 14q21 0 35 -7t24.5 -16t19.5 -16t20 -7q18 0 26 14t13 34h96q-7 -24 -18 -50.5t-28.5 -49t-41 -37.5t-55.5 -15z" />
    <glyph glyph-name="uni0400" unicode="&#x400;" 
d="M635 750l-27 -143h-322l-30 -154h290l-28 -142h-290l-33 -168h336l-27 -143h-514l145 750h500zM505 801h-141l-96 147h167z" />
    <glyph glyph-name="uni0401" unicode="&#x401;" 
d="M635 750l-27 -143h-322l-30 -154h290l-28 -142h-290l-33 -168h336l-27 -143h-514l145 750h500zM290 938h112l-24 -126h-112zM480 938h112l-24 -126h-112z" />
    <glyph glyph-name="uni0402" unicode="&#x402;" horiz-adv-x="767" 
d="M407 416q40 20 82 30.5t75 10.5q49 0 79.5 -14.5t46.5 -39.5t18.5 -58t-4.5 -70l-63 -322q-11 -56 -27.5 -90.5t-41 -53.5t-58 -25.5t-78.5 -6.5q-34 0 -57.5 3t-48.5 11l27 136q19 -4 29.5 -5.5t24.5 -1.5q15 0 25 3t17.5 11t12 22.5t9.5 37.5l49 253q7 35 0 51t-39 16
q-22 0 -51 -8.5t-53 -23.5l-55 -282h-175l116 598h-211l29 152h606l-29 -152h-220z" />
    <glyph glyph-name="uni0403" unicode="&#x403;" horiz-adv-x="576" 
d="M-10 0l145 750h499l-31 -158h-321l-115 -592h-177zM429 951h178l-142 -147h-152z" />
    <glyph glyph-name="uni0404" unicode="&#x404;" horiz-adv-x="598" 
d="M477 301h-279q-7 -40 -5.5 -69t17.5 -48t48 -28t86 -9q40 0 87.5 4.5t98.5 18.5l-30 -150q-20 -9 -45 -15t-51.5 -9t-53 -4.5t-49.5 -1.5q-178 0 -243 88t-31 265l23 121q16 87 51 144.5t86 92t117.5 48.5t146.5 14q22 0 47.5 -2t50.5 -5.5t47 -8.5t38 -11l-29 -147
q-35 8 -74 13t-86 5q-53 0 -90 -9t-62.5 -27.5t-41 -46.5t-23.5 -67h280z" />
    <glyph glyph-name="uni0405" unicode="&#x405;" 
d="M218 -10q-55 0 -119.5 8.5t-121.5 31.5l28 144q60 -22 115.5 -30.5t99.5 -8.5q73 0 111 20.5t38 74.5q0 14 -6 24t-19 17.5t-34 15t-51 17.5l-68 22q-59 19 -94.5 63.5t-35.5 110.5q0 134 83 197t243 63q30 0 61 -1.5t59 -5t52 -8t41 -10.5l-27 -137q-38 10 -85.5 15
t-89.5 5q-86 0 -120 -21.5t-34 -67.5q0 -14 7 -23.5t20.5 -16.5t32 -13t42.5 -14l70 -24q67 -23 103 -59.5t36 -102.5q0 -79 -23.5 -133.5t-67.5 -88.5t-106 -49t-140 -15z" />
    <glyph glyph-name="uni0406" unicode="&#x406;" horiz-adv-x="303" 
d="M168 0h-178l145 750h178z" />
    <glyph glyph-name="uni0407" unicode="&#x407;" horiz-adv-x="303" 
d="M168 0h-178l145 750h178zM111 938h112l-24 -126h-112zM301 938h112l-24 -126h-112z" />
    <glyph glyph-name="uni0408" unicode="&#x408;" horiz-adv-x="436" 
d="M453 750l-105 -542q-11 -57 -27 -98t-43 -68t-69 -39.5t-105 -12.5q-12 0 -33 1.5t-44.5 4.5t-45.5 7.5t-36 10.5l31 153q33 -13 61 -17t54 -4q18 0 31.5 4t23.5 13.5t16.5 25.5t11.5 41l102 520h177z" />
    <glyph glyph-name="uni0409" unicode="&#x409;" horiz-adv-x="1049" 
d="M535 600h-161l-51 -258q-18 -95 -45 -160.5t-67.5 -106t-98.5 -58t-139 -17.5h-22l31 161h15q31 0 55.5 8t42.5 28t31.5 53.5t23.5 84.5l80 415h507l-48 -248h84q69 0 117.5 -10.5t77 -34t37 -62t-2.5 -95.5l-21 -112q-12 -61 -36.5 -98t-61.5 -57t-85 -26.5t-108 -6.5
h-271zM684 127q59 0 87 18.5t37 63.5l15 76q5 28 4.5 45.5t-10 27t-29.5 13t-54 3.5h-70l-49 -247h69z" />
    <glyph glyph-name="uni040A" unicode="&#x40a;" horiz-adv-x="1029" 
d="M722 750l-54 -278h84q69 0 118 -10.5t77.5 -34t37 -62t-2.5 -95.5l-16 -82q-12 -61 -36.5 -98t-61.5 -57t-85 -26.5t-108 -6.5h-271l61 316h-241l-61 -316h-173l145 750h173l-54 -277h241l54 277h173zM670 127q58 0 86.5 18.5t37.5 63.5l9 46q6 28 5.5 45.5t-10.5 27
t-30 13t-54 3.5h-71l-43 -217h70z" />
    <glyph glyph-name="uni040B" unicode="&#x40b;" horiz-adv-x="769" 
d="M476 0l48 247q7 35 0 51t-39 16q-22 0 -51 -8.5t-53 -23.5l-55 -282h-175l116 598h-211l29 152h606l-29 -152h-220l-35 -182q40 20 82 30.5t75 10.5q49 0 79.5 -14.5t46.5 -39.5t18.5 -58t-4.5 -70l-54 -275h-174z" />
    <glyph glyph-name="uni040C" unicode="&#x40c;" horiz-adv-x="722" 
d="M462 378l181 -378h-204l-133 308h-79l-59 -308h-178l145 750h178l-58 -299h64l227 299h216zM460 948h178l-142 -147h-152z" />
    <glyph glyph-name="uni040D" unicode="&#x40d;" horiz-adv-x="742" 
d="M135 750h163l-95 -491q17 32 31 54t34 48l303 389h181l-145 -750h-163l95 490q-14 -28 -29.5 -54.5t-38.5 -55.5l-299 -380h-182zM542 801h-141l-96 147h167z" />
    <glyph glyph-name="uni040E" unicode="&#x40e;" horiz-adv-x="594" 
d="M375 803q-34 0 -59 12t-40 32t-20 47.5t0 59.5h86q-7 -59 45 -59q51 0 67 59h94q-7 -33 -20.5 -60.5t-34.5 -47.5t-50.5 -31.5t-67.5 -11.5zM663 750l-408 -750h-189l107 199l-90 551h182l31 -257q2 -26 3.5 -53t0.5 -68q16 41 28 68t24 52l124 258h187z" />
    <glyph glyph-name="uni040F" unicode="&#x40f;" horiz-adv-x="731" 
d="M205 0h-215l145 750h177l-114 -589h242l114 589h177l-145 -750h-214l-31 -154h-167z" />
    <glyph glyph-name="uni0410" unicode="&#x410;" horiz-adv-x="726" 
d="M538 750l111 -750h-187l-20 162h-236l-82 -162h-187l394 750h207zM274 310h155l-15 162q-2 17 -3 31.5t-2 29.5t-1 31.5t1 36.5q-6 -20 -12.5 -36t-13 -31t-14 -29.5t-15.5 -32.5z" />
    <glyph glyph-name="uni0411" unicode="&#x411;" horiz-adv-x="669" 
d="M236 353l-45 -228h98q32 0 54.5 3.5t37 13t23.5 25.5t14 41l12 62q5 25 4 41t-10.5 25.5t-29 13t-51.5 3.5h-107zM386 478q69 0 117.5 -9.5t77 -31t37 -58t-1.5 -90.5l-23 -120q-11 -54 -32.5 -87t-57.5 -51.5t-86.5 -24.5t-119.5 -6h-307l145 750h513l-24 -125h-335
l-29 -147h126z" />
    <glyph glyph-name="uni0412" unicode="&#x412;" horiz-adv-x="668" 
d="M135 750h308q53 0 95 -8t69.5 -27.5t38.5 -52t1 -81.5l-11 -58q-5 -22 -13 -43t-21.5 -39t-33.5 -32.5t-48 -23.5q61 -13 80 -52t8 -90l-15 -79q-11 -54 -32 -86.5t-55.5 -49.5t-84.5 -22.5t-119 -5.5h-312zM231 327l-40 -202h98q32 0 54.5 3.5t37 13t23.5 25.5t14 41
l6 33q9 47 -9.5 66.5t-77.5 19.5h-106zM289 625l-35 -179h102q19 0 35.5 2t29 9.5t21 22.5t13.5 40l7 37q8 41 -9.5 54.5t-66.5 13.5h-97z" />
    <glyph glyph-name="uni0413" unicode="&#x413;" horiz-adv-x="576" 
d="M-10 0l145 750h499l-31 -158h-321l-115 -592h-177z" />
    <glyph glyph-name="uni0414" unicode="&#x414;" horiz-adv-x="784" 
d="M543 0h-426l-29 -154h-168l57 297h39q63 0 105.5 58t60.5 154l74 395h498l-114 -607h98l-56 -297h-168zM366 401q-11 -53 -20 -92t-21 -69t-28 -53t-39 -44h208l87 464h-150z" />
    <glyph glyph-name="uni0415" unicode="&#x415;" 
d="M635 750l-27 -143h-322l-30 -154h290l-28 -142h-290l-33 -168h336l-27 -143h-514l145 750h500z" />
    <glyph glyph-name="uni0416" unicode="&#x416;" horiz-adv-x="967" 
d="M477 750h164l-58 -299h11l214 299h199l-296 -370l179 -380h-195l-120 308h-20l-59 -308h-164l59 308h-15l-238 -308h-201l325 380l-152 370h193l98 -299h18z" />
    <glyph glyph-name="uni0417" unicode="&#x417;" horiz-adv-x="611" 
d="M167 317l26 132h93q57 0 88.5 26.5t31.5 86.5q0 31 -23.5 46t-79.5 15q-45 0 -96 -8.5t-96 -22.5l27 138q19 7 45 13t55.5 10.5t61.5 7t62 2.5q59 0 99 -12.5t65 -34.5t35.5 -52.5t10.5 -66.5q0 -29 -6 -62.5t-22.5 -64.5t-45 -55.5t-73.5 -36.5q59 -14 84 -46.5
t25 -80.5q0 -136 -76.5 -200t-248.5 -64q-33 0 -66.5 3t-63.5 8.5t-55 12t-42 14.5l28 139q19 -8 43.5 -14.5t51.5 -11.5t55 -8t55 -3q84 0 118.5 30.5t34.5 94.5q0 38 -26.5 51.5t-77.5 13.5h-97z" />
    <glyph glyph-name="uni0418" unicode="&#x418;" horiz-adv-x="742" 
d="M135 750h163l-95 -491q17 32 31 54t34 48l303 389h181l-145 -750h-163l95 490q-14 -28 -29.5 -54.5t-38.5 -55.5l-299 -380h-182z" />
    <glyph glyph-name="uni0419" unicode="&#x419;" horiz-adv-x="742" 
d="M135 750h163l-95 -491q17 32 31 54t34 48l303 389h181l-145 -750h-163l95 490q-14 -28 -29.5 -54.5t-38.5 -55.5l-299 -380h-182zM453 803q-34 0 -59 12t-40 32t-20 47.5t0 59.5h86q-7 -59 45 -59q51 0 67 59h94q-7 -33 -20.5 -60.5t-34.5 -47.5t-50.5 -31.5t-67.5 -11.5
z" />
    <glyph glyph-name="uni041A" unicode="&#x41a;" horiz-adv-x="722" 
d="M462 378l181 -378h-204l-133 308h-79l-59 -308h-178l145 750h178l-58 -299h64l227 299h216z" />
    <glyph glyph-name="uni041B" unicode="&#x41b;" horiz-adv-x="738" 
d="M543 600h-165l-49 -248q-18 -95 -47 -162t-72 -109t-103 -61.5t-141 -19.5h-15l31 161h15q31 0 55.5 8t42.5 28t31.5 53.5t23.5 84.5l80 415h518l-146 -750h-176z" />
    <glyph glyph-name="uni041C" unicode="&#x41c;" horiz-adv-x="890" 
d="M755 0h-156l88 461q5 27 16 65.5t20 68.5q-7 -21 -16 -44.5t-17.5 -45t-16 -39.5t-11.5 -27l-200 -439h-177l-34 441q-1 10 -1.5 28t-0.5 39v44v43q-3 -35 -7 -69t-10 -64l-89 -462h-153l145 750h230l37 -488q2 -28 2.5 -49.5t-1.5 -51.5q8 28 19 53.5t20 46.5l216 489
h242z" />
    <glyph glyph-name="uni041D" unicode="&#x41d;" horiz-adv-x="726" 
d="M736 750l-145 -750h-177l58 303h-247l-58 -303h-177l145 750h177l-56 -285h247l56 285h177z" />
    <glyph glyph-name="uni041E" unicode="&#x41e;" horiz-adv-x="742" 
d="M685 291q-32 -162 -127.5 -233t-256.5 -71q-78 0 -136 23t-93 67.5t-45.5 108.5t5.5 145l25 128q16 81 49 138.5t82 94t112.5 54t139.5 17.5q79 0 137.5 -23.5t93 -68t45 -108t-5.5 -144.5zM530 423q20 97 -8 140t-106 43q-79 0 -124.5 -43t-63.5 -140l-18 -96
q-19 -97 9 -140t107 -43q78 0 122.5 43t63.5 140z" />
    <glyph glyph-name="uni041F" unicode="&#x41f;" horiz-adv-x="721" 
d="M523 589h-242l-114 -589h-177l145 750h596l-145 -750h-177z" />
    <glyph glyph-name="uni0420" unicode="&#x420;" horiz-adv-x="648" 
d="M135 750h293q60 0 106.5 -10.5t76.5 -35t41.5 -65.5t-0.5 -102l-17 -86q-11 -57 -33 -91.5t-58 -53.5t-87 -25.5t-120 -6.5h-116l-53 -274h-178zM288 621l-43 -217h78q34 0 57.5 3.5t40 13t26 27t15.5 45.5l9 46q9 45 -13 63.5t-80 18.5h-90z" />
    <glyph glyph-name="uni0421" unicode="&#x421;" horiz-adv-x="622" 
d="M617 587q-35 8 -79 12.5t-91 4.5q-54 0 -90 -10.5t-59.5 -31t-37 -51t-21.5 -70.5l-24 -125q-9 -44 -7.5 -75.5t17 -52.5t47.5 -31t85 -10q40 0 90 4.5t101 18.5l-30 -150q-23 -9 -50.5 -15t-56 -9t-56.5 -4.5t-51 -1.5q-175 0 -237.5 84t-27.5 261l23 118
q18 93 50.5 152.5t81 94t113 47.5t146.5 13q28 0 55.5 -1.5t53 -5t47.5 -8t38 -10.5z" />
    <glyph glyph-name="uni0422" unicode="&#x422;" horiz-adv-x="655" 
d="M56 594l30 156h612l-30 -156h-217l-114 -594h-177l114 594h-218z" />
    <glyph glyph-name="uni0423" unicode="&#x423;" horiz-adv-x="594" 
d="M663 750l-408 -750h-189l107 199l-90 551h182l31 -257q2 -26 3.5 -53t0.5 -68q16 41 28 68t24 52l124 258h187z" />
    <glyph glyph-name="uni0424" unicode="&#x424;" horiz-adv-x="819" 
d="M216 373q-8 -39 -9.5 -66.5t7 -45t28 -26.5t52.5 -12l64 329q-29 -2 -51 -10.5t-38 -25.5t-27 -43.5t-19 -65.5zM425 -12h-177l18 93q-71 4 -120 22t-77.5 52.5t-35.5 86.5t7 125l14 73q14 72 42.5 120.5t70.5 78.5t97 44t122 17l15 73h177l-15 -73q67 -4 116 -22t78 -53
t37.5 -87t-5.5 -124l-14 -73q-14 -73 -40 -121.5t-66.5 -78.5t-96.5 -43.5t-129 -16.5zM471 223q33 3 55.5 10t37.5 23t24 42t16 65l7 38q14 77 -1.5 111t-74.5 40z" />
    <glyph glyph-name="uni0425" unicode="&#x425;" horiz-adv-x="727" 
d="M368 178q-11 29 -17 56t-10 62q-20 -39 -38 -64.5t-38 -53.5l-127 -178h-208l295 386l-132 364h199l53 -168q5 -16 8.5 -28t6.5 -24.5t5.5 -26.5t5.5 -35q12 20 21 34.5t18 27t18 24.5t20 29l114 167h205l-279 -365l146 -385h-202z" />
    <glyph glyph-name="uni0426" unicode="&#x426;" horiz-adv-x="756" 
d="M130 750h177l-112 -601h242l112 601h177l-112 -601h102l-57 -303h-168l29 154h-530z" />
    <glyph glyph-name="uni0427" unicode="&#x427;" horiz-adv-x="716" 
d="M580 0h-177l60 312q-54 -29 -112 -47t-132 -18q-41 0 -73.5 13t-53 41.5t-26.5 73.5t7 108l51 267h178l-52 -269q-11 -51 2 -69t54 -18q42 0 89.5 13t92.5 35l60 308h178z" />
    <glyph glyph-name="uni0428" unicode="&#x428;" horiz-adv-x="906" 
d="M771 0h-781l145 750h174l-119 -611h130l119 611h173l-119 -611h130l119 611h174z" />
    <glyph glyph-name="uni0429" unicode="&#x429;" horiz-adv-x="934" 
d="M791 147h102l-56 -301h-168l28 154h-707l141 750h174l-113 -603h126l113 603h173l-113 -603h127l113 603h173z" />
    <glyph glyph-name="uni042A" unicode="&#x42a;" horiz-adv-x="766" 
d="M69 750h362l-48 -248h90q138 0 194 -48t36 -156l-21 -112q-12 -61 -36 -98t-60 -56.5t-84 -25.5t-108 -6h-286l116 599h-184zM380 129q59 0 88 18.5t38 63.5l15 72q6 28 5 45.5t-11 27t-31 13t-55 3.5h-71l-48 -243h70z" />
    <glyph glyph-name="uni042B" unicode="&#x42b;" horiz-adv-x="869" 
d="M135 750h178l-48 -248h55q138 0 195 -46.5t36 -159.5l-21 -112q-12 -61 -36.5 -97.5t-61.5 -55.5t-85.5 -25t-108.5 -6h-248zM229 129q58 0 87.5 18.5t37.5 63.5l15 72q5 28 4.5 45.5t-10 27t-30 13t-54.5 3.5h-39l-48 -243h37zM703 750h176l-145 -750h-176z" />
    <glyph glyph-name="uni042C" unicode="&#x42c;" horiz-adv-x="648" 
d="M135 750h178l-48 -248h90q138 0 194 -48t36 -156l-21 -112q-12 -61 -36 -98t-60 -56.5t-84 -25.5t-108 -6h-286zM262 129q59 0 88 18.5t38 63.5l15 72q6 28 5 45.5t-11 27t-31 13t-55 3.5h-71l-48 -243h70z" />
    <glyph glyph-name="uni042D" unicode="&#x42d;" horiz-adv-x="626" 
d="M144 450h276q7 39 6 68t-16 49t-47 30t-88 10q-47 0 -93.5 -4.5t-84.5 -12.5l29 148q36 12 91 18.5t110 6.5q75 0 133 -18t94 -58.5t47 -106t-8 -159.5l-23 -121q-18 -89 -47 -148.5t-75 -95.5t-110.5 -51t-153.5 -15q-23 0 -51 1.5t-56.5 4.5t-55 9t-46.5 15l30 150
q45 -14 93 -18.5t88 -4.5q49 0 84 9t58 27t37 45.5t23 65.5h-275z" />
    <glyph glyph-name="uni042E" unicode="&#x42e;" horiz-adv-x="968" 
d="M908 301q-33 -161 -116.5 -237.5t-236.5 -76.5q-75 0 -132.5 18.5t-93.5 56.5t-47.5 96t4.5 138l3 15h-64l-60 -311h-175l145 750h175l-61 -314h64l3 15q32 161 118 236.5t237 75.5q76 0 133 -19.5t92.5 -58.5t46.5 -98t-5 -138zM760 443q9 48 6 79.5t-17 50t-37.5 26
t-55.5 7.5t-58.5 -7.5t-47.5 -26t-36.5 -50t-24.5 -79.5l-27 -136q-10 -48 -7 -79.5t17 -50t38 -26t56 -7.5t58.5 7.5t47.5 26t36 50t25 79.5z" />
    <glyph glyph-name="uni042F" unicode="&#x42f;" horiz-adv-x="683" 
d="M548 0h-178l54 281h-108l-174 -281h-196l197 305q-89 43 -62 181l15 75q12 61 35.5 98t59 57.5t83 27t107.5 6.5h312zM387 621q-58 0 -82.5 -18t-33.5 -63l-7 -41q-6 -28 -3 -45t15 -26.5t34.5 -13t56.5 -3.5h82l41 210h-103z" />
    <glyph glyph-name="uni0430" unicode="&#x430;" horiz-adv-x="568" 
d="M446 0h-128l-6 50q-35 -25 -80.5 -42.5t-101.5 -17.5q-37 0 -66 10t-47 30.5t-24 51.5t2 73l7 38q9 47 28 77t51 46.5t77.5 22.5t107.5 6h80l6 30q4 21 3.5 35t-8 22t-23 11t-40.5 3q-14 0 -35 -2t-45 -6.5t-49.5 -10.5t-49.5 -15l24 122q44 16 98.5 24.5t96.5 8.5
q66 0 107.5 -15.5t63 -43t25.5 -66.5t-5 -87zM326 240h-64q-18 0 -34 -0.5t-28 -5.5t-21 -15.5t-13 -31.5l-4 -23q-12 -54 41 -54q23 0 52.5 8t51.5 25z" />
    <glyph glyph-name="uni0431" unicode="&#x431;" horiz-adv-x="656" 
d="M422 507q45 0 81 -15.5t59.5 -44.5t32.5 -70.5t-1 -94.5l-13 -68q-12 -61 -38.5 -104t-66 -70.5t-90.5 -40t-112 -12.5q-81 0 -135 22.5t-83.5 66t-35 106t10.5 142.5l25 123q15 76 46 130t73.5 91t95 59t112.5 33.5t124.5 14.5t131.5 3l-24 -124q-34 -1 -73 -2.5
t-77.5 -6.5t-75.5 -15.5t-67 -31t-52 -52t-30 -77.5q44 19 86.5 28.5t95.5 9.5zM290 124q44 0 76.5 21.5t43.5 73.5l9 50q12 62 -5 91t-71 29q-32 0 -62 -6.5t-63 -20.5l-14 -70q-8 -40 -9 -71.5t8 -53t30 -32.5t57 -11z" />
    </font>
</defs>
</svg>
